<?xml version="1.0" encoding="UTF-8" standalone="no"?>
<!DOCTYPE svg PUBLIC "-//W3C//DTD SVG 1.1//EN" "http://www.w3.org/Graphics/SVG/1.1/DTD/svg11.dtd">
<svg xmlns="http://www.w3.org/2000/svg" xmlns:xlink="http://www.w3.org/1999/xlink" version="1.1">
<metadata>
Created by FontForge 20200427 at Tue Apr 14 16:08:55 2015
 By www
Copyright 2013 Google Inc. All Rights Reserved.
</metadata>
<defs>
<font id="NotoSansMalayalam" horiz-adv-x="1171">
  <font-face font-family="Noto Sans Malayalam" font-weight="400" font-stretch="normal" units-per-em="2048" panose-1="2 11 5 2 4 5 4 2 2 4" ascent="1638" descent="-410" x-height="1098" cap-height="1462" bbox="-1655 -784 4778 1727" underline-thickness="102" underline-position="-205" unicode-range="U+000D-25CC"/>
<missing-glyph horiz-adv-x="1229" d="M193 1462h841v-1462h-841v1462zM297 104h633v1254h-633v-1254z"/>
    <glyph glyph-name="uni0D17_uni0307" unicode="ഗ̇" horiz-adv-x="1837" d="M828 641q0 194 44 295t139 163.5t262 62.5q219 0 351.5 -154t132.5 -408q0 -186 -71.5 -332t-245.5 -285l-110 126q247 177 247 485q0 189 -83.5 304.5t-223.5 115.5q-106 0 -167 -55t-78 -151.5t-17 -291.5v-18q0 -211 -56.5 -315t-150 -155t-232.5 -51 q-227 0 -358 149.5t-131 411.5q0 197 76.5 346t240.5 278l110 -127q-247 -177 -247 -492q0 -190 82.5 -304t218.5 -114q115 0 173 50.5t76 143t18 295.5v27zM1169 144zM1169 0zM661 1134zM661 990zM918 1550q48 0 77 -30t29 -85q0 -53 -29 -83.5t-77 -30.5q-49 0 -78 30 t-29 84q0 56 29 85.5t78 29.5zM713 1726zM700 1462z"/>
    <glyph glyph-name="uni0D17_dotbelowcomb" unicode="ഗ̣" horiz-adv-x="1837" d="M828 641q0 194 44 295t139 163.5t262 62.5q219 0 351.5 -154t132.5 -408q0 -186 -71.5 -332t-245.5 -285l-110 126q247 177 247 485q0 189 -83.5 304.5t-223.5 115.5q-106 0 -167 -55t-78 -151.5t-17 -291.5v-18q0 -211 -56.5 -315t-150 -155t-232.5 -51 q-227 0 -358 149.5t-131 411.5q0 197 76.5 346t240.5 278l110 -127q-247 -177 -247 -492q0 -190 82.5 -304t218.5 -114q115 0 173 50.5t76 143t18 295.5v27zM1169 144zM1169 0zM661 1134zM661 990zM918 -163q48 0 77 -30t29 -85q0 -53 -29 -83.5t-77 -30.5q-49 0 -78 30 t-29 84q0 56 29 85.5t78 29.5zM683 0zM687 -690z"/>
    <glyph glyph-name="uni0D27_uni0307" unicode="ധ̇" horiz-adv-x="1865" d="M397 1161l110 -126q-126 -90 -186.5 -211t-60.5 -281q0 -183 89 -301t228 -118q72 0 122 22t84.5 70t47.5 111t13 214v593h177v-593q0 -118 9 -183.5t39 -118t83 -84t131 -31.5q89 0 163 52t116.5 150t42.5 218q0 314 -245 488l122 130q162 -130 232.5 -278.5 t70.5 -339.5q0 -164 -62.5 -293.5t-178.5 -202t-269 -72.5q-115 0 -198.5 45t-143.5 140q-63 -98 -149 -141.5t-209 -43.5q-148 0 -260 71.5t-173.5 202t-61.5 293.5q0 192 76 340t241 278zM661 990zM932 1550q48 0 77 -30t29 -85q0 -53 -29 -83.5t-77 -30.5q-49 0 -78 30 t-29 84q0 56 29 85.5t78 29.5zM727 1726zM714 1462z"/>
    <glyph glyph-name="uni0D27_dotbelowcomb" unicode="ധ̣" horiz-adv-x="1865" d="M397 1161l110 -126q-126 -90 -186.5 -211t-60.5 -281q0 -183 89 -301t228 -118q72 0 122 22t84.5 70t47.5 111t13 214v593h177v-593q0 -118 9 -183.5t39 -118t83 -84t131 -31.5q89 0 163 52t116.5 150t42.5 218q0 314 -245 488l122 130q162 -130 232.5 -278.5 t70.5 -339.5q0 -164 -62.5 -293.5t-178.5 -202t-269 -72.5q-115 0 -198.5 45t-143.5 140q-63 -98 -149 -141.5t-209 -43.5q-148 0 -260 71.5t-173.5 202t-61.5 293.5q0 192 76 340t241 278zM661 990zM932 -163q48 0 77 -30t29 -85q0 -53 -29 -83.5t-77 -30.5q-49 0 -78 30 t-29 84q0 56 29 85.5t78 29.5zM697 0zM701 -690z"/>
    <glyph glyph-name="uni0D28_uni0D3F_uni0307" unicode="നി̇" horiz-adv-x="2332" d="M1468 -17l-110 126q125 88 186 209t61 280q0 181 -88.5 298.5t-228.5 117.5q-72 0 -122.5 -22.5t-85.5 -72t-47 -114.5t-12 -208v-597h-177v597q0 116 -9 182t-38.5 119t-83 84.5t-131.5 31.5q-139 0 -230.5 -118.5t-91.5 -298.5q0 -317 245 -485l-117 -129 q-162 128 -235 275.5t-73 338.5q0 166 64 295.5t180 199.5t266 70q113 0 197 -44t145 -141q61 95 147 140t211 45q148 0 260.5 -71.5t173.5 -201.5t61 -291q0 -190 -75.5 -337.5t-241.5 -277.5zM669 144zM932 1550q48 0 77 -30t29 -85q0 -53 -29 -83.5t-77 -30.5 q-49 0 -78 30t-29 84q0 56 29 85.5t78 29.5zM727 1726zM714 1462zM1445 1282q-12 55 -12 98q0 159 101 253t261 94q153 0 242 -70t119.5 -176.5t30.5 -318.5v-1162h-177v1111q0 194 -18 287.5t-65.5 139t-126.5 45.5q-83 0 -136.5 -51.5t-53.5 -143.5q0 -37 8 -75z M1826 1134z"/>
    <glyph glyph-name="uni0D28_uni0D3F_dotbelowcomb" unicode="നി̣" horiz-adv-x="2332" d="M1468 -17l-110 126q125 88 186 209t61 280q0 181 -88.5 298.5t-228.5 117.5q-72 0 -122.5 -22.5t-85.5 -72t-47 -114.5t-12 -208v-597h-177v597q0 116 -9 182t-38.5 119t-83 84.5t-131.5 31.5q-139 0 -230.5 -118.5t-91.5 -298.5q0 -317 245 -485l-117 -129 q-162 128 -235 275.5t-73 338.5q0 166 64 295.5t180 199.5t266 70q113 0 197 -44t145 -141q61 95 147 140t211 45q148 0 260.5 -71.5t173.5 -201.5t61 -291q0 -190 -75.5 -337.5t-241.5 -277.5zM669 144zM932 -163q48 0 77 -30t29 -85q0 -53 -29 -83.5t-77 -30.5 q-49 0 -78 30t-29 84q0 56 29 85.5t78 29.5zM697 0zM701 -690zM1445 1282q-12 55 -12 98q0 159 101 253t261 94q153 0 242 -70t119.5 -176.5t30.5 -318.5v-1162h-177v1111q0 194 -18 287.5t-65.5 139t-126.5 45.5q-83 0 -136.5 -51.5t-53.5 -143.5q0 -37 8 -75zM1826 1134z "/>
    <glyph glyph-name="uni0D2A_uni0307" unicode="പ̇" horiz-adv-x="1835" d="M1690 0h-1018l-59 107q89 83 89 216q0 113 -60.5 177t-171.5 64q-104 0 -168 -65.5t-64 -163.5q0 -150 120 -230l-93 -119q-99 68 -149.5 158t-50.5 195q0 163 112 266t293 103q120 0 212 -45.5t142 -128.5t50 -180q0 -131 -63 -210h700v990h179v-1134zM950 1162z M917 1550q48 0 77 -30t29 -85q0 -53 -29 -83.5t-77 -30.5q-49 0 -78 30t-29 84q0 56 29 85.5t78 29.5zM712 1726zM699 1462z"/>
    <glyph glyph-name="uni0D2A_dotbelowcomb" unicode="പ̣" horiz-adv-x="1835" d="M1690 0h-1018l-59 107q89 83 89 216q0 113 -60.5 177t-171.5 64q-104 0 -168 -65.5t-64 -163.5q0 -150 120 -230l-93 -119q-99 68 -149.5 158t-50.5 195q0 163 112 266t293 103q120 0 212 -45.5t142 -128.5t50 -180q0 -131 -63 -210h700v990h179v-1134zM950 1162z M917 -163q48 0 77 -30t29 -85q0 -53 -29 -83.5t-77 -30.5q-49 0 -78 30t-29 84q0 56 29 85.5t78 29.5zM682 0zM686 -690z"/>
    <glyph glyph-name="uni0D2E_uni0307" unicode="മ̇" horiz-adv-x="1485" d="M1360 0h-1235v549q0 202 62.5 331t196 205.5t343.5 76.5q193 0 334 -62.5t220 -191.5t79 -363v-545zM302 139h10q229 172 354.5 350.5t125.5 333.5q0 91 -41.5 141.5t-120.5 50.5q-140 0 -234 -123t-94 -383v-370zM1183 509q0 248 -76 355t-208 141q38 -47 53.5 -94.5 t15.5 -106.5q0 -156 -97.5 -316t-307.5 -350q89 6 176 6h444v365zM742 1550q48 0 77 -30t29 -85q0 -53 -29 -83.5t-77 -30.5q-49 0 -78 30t-29 84q0 56 29 85.5t78 29.5zM537 1726zM524 1462z"/>
    <glyph glyph-name="uni0D2E_dotbelowcomb" unicode="മ̣" horiz-adv-x="1485" d="M1360 0h-1235v549q0 202 62.5 331t196 205.5t343.5 76.5q193 0 334 -62.5t220 -191.5t79 -363v-545zM302 139h10q229 172 354.5 350.5t125.5 333.5q0 91 -41.5 141.5t-120.5 50.5q-140 0 -234 -123t-94 -383v-370zM1183 509q0 248 -76 355t-208 141q38 -47 53.5 -94.5 t15.5 -106.5q0 -156 -97.5 -316t-307.5 -350q89 6 176 6h444v365zM742 -163q48 0 77 -30t29 -85q0 -53 -29 -83.5t-77 -30.5q-49 0 -78 30t-29 84q0 56 29 85.5t78 29.5zM507 0zM511 -690z"/>
    <glyph glyph-name="uni0D30_uni0D3F_uni0307" unicode="രി̇" horiz-adv-x="1974" d="M1225 732q-50 133 -176.5 207.5t-302.5 74.5q-226 0 -355 -121t-129 -334q0 -296 249 -448l-101 -129q-157 89 -243.5 241.5t-86.5 343.5q0 169 77.5 306.5t228.5 213t359 75.5q209 0 362.5 -78.5t236.5 -231t83 -357.5q0 -252 -114.5 -385.5t-319.5 -133.5 q-182 0 -290 120t-108 306q0 193 105 309t280 116q138 0 245 -95zM1254 561q-47 60 -108.5 91.5t-130.5 31.5q-120 0 -183.5 -72.5t-63.5 -205.5q0 -140 57.5 -213t167.5 -73q134 0 199 96.5t65 291.5q0 16 -3 53zM569 144zM569 0zM753 1550q48 0 77 -30t29 -85 q0 -53 -29 -83.5t-77 -30.5q-49 0 -78 30t-29 84q0 56 29 85.5t78 29.5zM548 1726zM535 1462zM1087 1282q-12 55 -12 98q0 159 101 253t261 94q153 0 242 -70t119.5 -176.5t30.5 -318.5v-1162h-177v1111q0 194 -18 287.5t-65.5 139t-126.5 45.5q-83 0 -136.5 -51.5 t-53.5 -143.5q0 -37 8 -75zM1468 1134z"/>
    <glyph glyph-name="uni0D30_uni0D3F_dotbelowcomb" unicode="രി̣" horiz-adv-x="1974" d="M1225 732q-50 133 -176.5 207.5t-302.5 74.5q-226 0 -355 -121t-129 -334q0 -296 249 -448l-101 -129q-157 89 -243.5 241.5t-86.5 343.5q0 169 77.5 306.5t228.5 213t359 75.5q209 0 362.5 -78.5t236.5 -231t83 -357.5q0 -252 -114.5 -385.5t-319.5 -133.5 q-182 0 -290 120t-108 306q0 193 105 309t280 116q138 0 245 -95zM1254 561q-47 60 -108.5 91.5t-130.5 31.5q-120 0 -183.5 -72.5t-63.5 -205.5q0 -140 57.5 -213t167.5 -73q134 0 199 96.5t65 291.5q0 16 -3 53zM569 144zM569 0zM753 -163q48 0 77 -30t29 -85 q0 -53 -29 -83.5t-77 -30.5q-49 0 -78 30t-29 84q0 56 29 85.5t78 29.5zM518 0zM522 -690zM1087 1282q-12 55 -12 98q0 159 101 253t261 94q153 0 242 -70t119.5 -176.5t30.5 -318.5v-1162h-177v1111q0 194 -18 287.5t-65.5 139t-126.5 45.5q-83 0 -136.5 -51.5 t-53.5 -143.5q0 -37 8 -75zM1468 1134z"/>
    <glyph glyph-name="uni0D38_uni0307" unicode="സ̇" horiz-adv-x="2505" d="M1678 552q0 -160 19.5 -245.5t79.5 -134t160 -48.5q138 0 223 113.5t85 306.5q0 153 -62.5 278t-182.5 210l122 130q162 -130 232.5 -278t70.5 -340q0 -262 -136 -415t-365 -153q-106 0 -189 33t-138.5 100.5t-76.5 162.5t-21 260v73q0 174 -22.5 251.5t-76 118 t-140.5 40.5q-83 0 -140 -44.5t-78 -122.5t-21 -215v-633h-177v597q0 155 -20 234.5t-82.5 131.5t-159.5 52q-89 0 -162.5 -52t-116.5 -149.5t-43 -216.5q0 -315 245 -485l-117 -130q-162 128 -235 275.5t-73 339.5q0 162 63 292t179 201.5t268 71.5q111 0 194 -43t150 -144 q113 187 350 187q125 0 212 -55.5t134.5 -158.5t47.5 -328v-68zM1861 1134zM1861 990zM669 144zM1252 1550q48 0 77 -30t29 -85q0 -53 -29 -83.5t-77 -30.5q-49 0 -78 30t-29 84q0 56 29 85.5t78 29.5zM1047 1726zM1034 1462z"/>
    <glyph glyph-name="uni0D38_dotbelowcomb" unicode="സ̣" horiz-adv-x="2505" d="M1678 552q0 -160 19.5 -245.5t79.5 -134t160 -48.5q138 0 223 113.5t85 306.5q0 153 -62.5 278t-182.5 210l122 130q162 -130 232.5 -278t70.5 -340q0 -262 -136 -415t-365 -153q-106 0 -189 33t-138.5 100.5t-76.5 162.5t-21 260v73q0 174 -22.5 251.5t-76 118 t-140.5 40.5q-83 0 -140 -44.5t-78 -122.5t-21 -215v-633h-177v597q0 155 -20 234.5t-82.5 131.5t-159.5 52q-89 0 -162.5 -52t-116.5 -149.5t-43 -216.5q0 -315 245 -485l-117 -130q-162 128 -235 275.5t-73 339.5q0 162 63 292t179 201.5t268 71.5q111 0 194 -43t150 -144 q113 187 350 187q125 0 212 -55.5t134.5 -158.5t47.5 -328v-68zM1861 1134zM1861 990zM669 144zM1252 -163q48 0 77 -30t29 -85q0 -53 -29 -83.5t-77 -30.5q-49 0 -78 30t-29 84q0 56 29 85.5t78 29.5zM1017 0zM1021 -690z"/>
    <glyph glyph-name=".notdef" horiz-adv-x="1229" d="M193 1462h841v-1462h-841v1462zM297 104h633v1254h-633v-1254z"/>
    <glyph glyph-name=".null" horiz-adv-x="0"/>
    <glyph glyph-name="nonmarkingreturn" unicode="&#xD;" horiz-adv-x="632"/>
    <glyph glyph-name="NULL" horiz-adv-x="0"/>
    <glyph glyph-name="NULL" horiz-adv-x="0"/>
    <glyph glyph-name="space" unicode=" " horiz-adv-x="632"/>
    <glyph glyph-name="space" unicode=" " horiz-adv-x="632"/>
    <glyph glyph-name="exclam" unicode="!" horiz-adv-x="551" d="M334 412h-117l-51 1051h219zM275 248q60 0 93 -35.5t34 -101.5q0 -68 -35 -103.5t-92 -35.5q-59 0 -93 35t-34 104q0 66 32.5 101.5t94.5 35.5z"/>
    <glyph glyph-name="quotedbl" unicode="&quot;" horiz-adv-x="836" d="M360 1638l-51 -528h-125l-51 528h227zM720 1638l-51 -528h-124l-51 528h226z"/>
    <glyph glyph-name="numbersign" unicode="#" horiz-adv-x="1323" d="M983 893l-63 -328h280v-137h-307l-82 -428h-147l84 428h-291l-82 -428h-144l78 428h-258v137h285l65 328h-274v137h299l82 432h147l-82 -432h293l84 432h144l-84 -432h262v-137h-289zM483 565h291l64 328h-291z"/>
    <glyph glyph-name="dollar" unicode="$" d="M1040 449q0 -137 -101.5 -227t-289.5 -113v-228h-131v219q-114 2 -218.5 19.5t-172.5 48.5v168q75 -35 183.5 -60.5t207.5 -27.5v428q-205 65 -290 152.5t-85 224.5q0 132 101 217t274 104v180h131v-178q190 -5 361 -76l-56 -141q-155 61 -305 72v-422 q160 -54 238.5 -102t115.5 -109.5t37 -148.5zM858 436q0 72 -47 114.5t-162 82.5v-375q209 32 209 178zM326 1055q0 -73 43 -118t149 -83v373q-94 -16 -143 -61t-49 -111z"/>
    <glyph glyph-name="percent" unicode="%" horiz-adv-x="1702" d="M400 565q-143 0 -221 119.5t-78 341.5q0 228 74.5 342.5t224.5 114.5q147 0 226.5 -118t80.5 -339q0 -228 -78.5 -344.5t-228.5 -116.5zM400 695q78 0 117.5 82.5t39.5 248.5q0 165 -39.5 247.5t-117.5 82.5q-79 0 -114.5 -83t-35.5 -247q0 -165 35.5 -248t114.5 -83z M1336 1463l-811 -1463h-158l811 1463h158zM1295 -20q-142 0 -220.5 119t-78.5 342q0 228 74.5 342t224.5 114q146 0 226 -118.5t81 -337.5q-1 -229 -79 -345t-228 -116zM1295 109q79 0 118 82t39 250q0 163 -39.5 245t-117.5 82q-79 0 -114.5 -81.5t-35.5 -245.5 q0 -166 35.5 -249t114.5 -83z"/>
    <glyph glyph-name="ampersand" unicode="&amp;" horiz-adv-x="1499" d="M422 1167q0 -65 35.5 -130t115.5 -144q124 69 175 132t51 144q0 76 -51 122t-132 46q-89 0 -141.5 -47t-52.5 -123zM575 139q227 0 383 146l-426 413q-138 -83 -186.5 -151t-48.5 -160q0 -113 77 -180.5t201 -67.5zM109 381q0 130 67 228t248 202q-77 87 -109.5 137.5 t-50.5 104t-18 112.5q0 148 99 234t278 86q165 0 259.5 -84t94.5 -232q0 -109 -68.5 -200t-224.5 -183l395 -380q93 108 144 325h182q-69 -285 -209 -440l299 -291h-244l-178 172q-114 -102 -235.5 -147t-268.5 -45q-215 0 -337.5 105t-122.5 296z"/>
    <glyph glyph-name="quotesingle" unicode="'" horiz-adv-x="513" d="M370 1638l-51 -528h-125l-51 528h227zM451 1463zM441 1726z"/>
    <glyph glyph-name="parenleft" unicode="(" horiz-adv-x="614" d="M82 560q0 150 18 295.5t55 282.5t93.5 263.5t134.5 237.5h172q-140 -231 -212.5 -507.5t-72.5 -569.5q0 -142 18.5 -283.5t54 -277t88.5 -262t122 -239.5h-170q-78 108 -134.5 231.5t-93.5 258t-55 278t-18 292.5z"/>
    <glyph glyph-name="parenright" unicode=")" horiz-adv-x="614" d="M535 559q0 -148 -18 -291.5t-55.5 -278.5t-94 -258t-134.5 -231h-170q69 113 122 239.5t89 262t54 276.5t18 284q0 292 -72 568.5t-213 507.5h172q78 -111 134.5 -237.5t94 -263.5t55.5 -282.5t18 -295.5z"/>
    <glyph glyph-name="asterisk" unicode="*" horiz-adv-x="1128" d="M664 1638l-43 -393l397 111l26 -193l-378 -28l245 -326l-178 -96l-176 358l-158 -358l-184 96l242 326l-375 28l29 193l391 -111l-43 393h205zM751 1463zM741 1726z"/>
    <glyph glyph-name="plus" unicode="+" d="M659 795h408v-146h-408v-422h-147v422h-408v146h408v424h147v-424zM580 0zM591 1463z"/>
    <glyph glyph-name="comma" unicode="," horiz-adv-x="549" d="M383 238l15 -23q-14 -54 -33.5 -115t-43 -123t-49 -123.5t-50.5 -117.5h-138q15 61 29.5 127t28 131.5t24.5 128t19 115.5h198z"/>
    <glyph glyph-name="hyphen" unicode="-" horiz-adv-x="659" d="M82 465v168h496v-168h-496zM324 1134zM324 0z"/>
    <glyph glyph-name="period" unicode="." horiz-adv-x="549" d="M147 111q0 38 10 64.5t27 43t40 24t50 7.5q26 0 49.5 -7.5t40.5 -24t27 -43t10 -64.5q0 -37 -10 -63.5t-27 -43.5t-40.5 -25t-49.5 -8q-27 0 -50 8t-40 25t-27 43.5t-10 63.5z"/>
    <glyph glyph-name="slash" unicode="/" horiz-adv-x="762" d="M743 1638l-544 -2138h-179l545 2138h178z"/>
    <glyph glyph-name="zero" unicode="0" d="M586 -20q-238 0 -360.5 191t-122.5 562q0 386 119.5 569t363.5 183q237 0 362 -191.5t125 -560.5q0 -380 -120.5 -566.5t-366.5 -186.5zM586 133q159 0 232 143t73 457q0 313 -73.5 455.5t-231.5 142.5q-160 0 -231.5 -142t-71.5 -456q0 -315 71.5 -457.5t231.5 -142.5z "/>
    <glyph glyph-name="one" unicode="1" d="M728 0h-176v1022q0 165 8 252q-29 -31 -78 -72l-204 -168l-94 121l395 308h149v-1463z"/>
    <glyph glyph-name="two" unicode="2" d="M1066 0h-966v150l383 387q152 154 214.5 231.5t93.5 153t31 162.5q0 115 -69.5 180t-188.5 65q-96 0 -176 -32t-176 -107l-96 121q206 172 448 172q205 0 323.5 -105t119.5 -284q0 -108 -43.5 -205t-117.5 -188.5t-214 -227.5l-305 -301v-8h739v-164z"/>
    <glyph glyph-name="three" unicode="3" d="M708 770v-8q171 -22 259.5 -110t88.5 -236q0 -207 -145 -321.5t-416 -114.5q-243 0 -402 80v168q93 -47 199.5 -72t204.5 -25q185 0 278 72t93 217q0 129 -102.5 193.5t-307.5 64.5h-141v154h143q174 0 270 74t97 202q-1 105 -72 164t-195 59q-97 0 -181.5 -27 t-186.5 -95l-90 122q197 152 456 152q216 0 334.5 -97.5t118.5 -264.5q0 -139 -77.5 -229.5t-225.5 -121.5z"/>
    <glyph glyph-name="four" unicode="4" d="M1132 332h-213v-332h-174v332h-701v154l688 985h187v-977h213v-162zM745 494v461q0 122 10 323h-8q-35 -77 -88 -160l-439 -624h525z"/>
    <glyph glyph-name="five" unicode="5" d="M130 60v170q72 -44 177.5 -70.5t203.5 -26.5q172 0 266.5 81.5t94.5 234.5q0 148 -92 222.5t-275 74.5q-108 0 -250 -31l-90 57l55 691h734v-164h-580l-35 -424q125 22 225 22q228 0 360 -115t132 -315q0 -228 -143.5 -357.5t-403.5 -129.5q-118 0 -216.5 20.5 t-162.5 59.5z"/>
    <glyph glyph-name="six" unicode="6" d="M961 1465v-154q-75 25 -176 25q-237 0 -359 -143t-135 -449h12q55 84 143.5 128t203.5 44q193 0 308 -119t115 -326q0 -228 -126 -359.5t-338 -131.5q-227 0 -362.5 170t-135.5 475q0 429 167.5 643.5t502.5 214.5q107 0 180 -18zM895 471q0 144 -72.5 223.5t-209.5 79.5 q-93 0 -167.5 -40.5t-113.5 -102t-39 -125.5q0 -100 40.5 -188t111.5 -137.5t162 -49.5q137 0 212.5 88.5t75.5 251.5z"/>
    <glyph glyph-name="seven" unicode="7" d="M280 0l600 1299h-789v164h981v-140l-594 -1323h-198z"/>
    <glyph glyph-name="eight" unicode="8" d="M745 774q174 -85 249.5 -179t75.5 -216q0 -182 -129.5 -290.5t-349.5 -108.5q-237 0 -363 102.5t-126 290.5q0 126 75.5 223.5t227.5 167.5q-133 75 -195 165.5t-61 205.5q-1 159 119.5 253.5t316.5 94.5q200 0 319 -94t119 -256q0 -110 -67.5 -198t-210.5 -161zM593 844 q134 55 193 122.5t59 160.5q0 98 -70.5 154.5t-191.5 56.5q-118 0 -188 -57t-70 -154q-1 -89 56 -153.5t212 -129.5zM554 690q-145 -62 -210.5 -138t-65.5 -181q0 -114 80.5 -181t228.5 -67q143 0 225 68.5t82 185.5q0 94 -72.5 166t-234.5 135z"/>
    <glyph glyph-name="nine" unicode="9" d="M205 0v154q83 -27 180 -27q239 0 361 143.5t133 446.5h-12q-112 -170 -349 -170q-194 0 -306.5 118.5t-112.5 323.5q0 227 126.5 360.5t340.5 133.5q225 0 360 -170t135 -475q0 -429 -168 -643.5t-504 -214.5q-47 0 -101.5 5.5t-82.5 14.5zM277 991q0 -146 71.5 -223.5 t208.5 -77.5q88 0 162.5 36t117 99.5t42.5 131.5q-1 95 -39 183t-109.5 139.5t-164.5 51.5q-137 0 -213 -89t-76 -251z"/>
    <glyph glyph-name="colon" unicode=":" horiz-adv-x="549" d="M147 111q0 38 10 64.5t27 43t40 24t50 7.5q26 0 49.5 -7.5t40.5 -24t27 -43t10 -64.5q0 -37 -10 -63.5t-27 -43.5t-40.5 -25t-49.5 -8q-27 0 -50 8t-40 25t-27 43.5t-10 63.5zM147 987q0 39 10 65.5t27 43t40 23.5t50 7q26 0 49.5 -7t40.5 -23.5t27 -43t10 -65.5 q0 -37 -10 -63t-27 -43t-40.5 -25t-49.5 -8q-27 0 -50 8t-40 25t-27 43t-10 63zM94 1134z"/>
    <glyph glyph-name="semicolon" unicode=";" horiz-adv-x="549" d="M362 238l15 -23q-14 -54 -33.5 -115t-43 -123t-49 -123.5t-50.5 -117.5h-138q15 61 29.5 127t28 131.5t24.5 128t19 115.5h198zM147 987q0 39 10 65.5t27 43t40 23.5t50 7q26 0 49.5 -7t40.5 -23.5t27 -43t10 -65.5q0 -37 -10 -63t-27 -43t-40.5 -25t-49.5 -8 q-27 0 -50 8t-40 25t-27 43t-10 63zM94 1134zM94 0z"/>
    <glyph glyph-name="less" unicode="&lt;" d="M1068 238l-965 424v102l965 481v-160l-772 -364l772 -324v-159zM580 0zM591 1463z"/>
    <glyph glyph-name="equal" unicode="=" d="M116 852v145h938v-145h-938zM116 444v146h938v-146h-938zM580 0zM591 1463z"/>
    <glyph glyph-name="greater" unicode="&gt;" d="M103 397l772 322l-772 366v160l965 -481v-102l-965 -424v159zM580 0zM591 1463z"/>
    <glyph glyph-name="question" unicode="?" horiz-adv-x="889" d="M269 414v37q0 57 7.5 103t27 86t52.5 78.5t83 80.5q48 41 82 74.5t55.5 68t32 74t10.5 92.5q0 48 -15 87.5t-43.5 68t-71 44t-98.5 15.5q-83 0 -158 -26t-145 -60l-63 145q81 42 175 71.5t191 29.5q93 0 167.5 -25.5t126.5 -73.5t80 -117.5t28 -156.5q0 -67 -13.5 -119.5 t-40.5 -97.5t-67 -87t-94 -89q-52 -45 -85 -78.5t-52 -65t-26 -64.5t-7 -77v-18h-139zM221 111q0 38 10 64.5t27 43t40 24t50 7.5q26 0 49.5 -7.5t40.5 -24t27 -43t10 -64.5q0 -37 -10 -63.5t-27 -43.5t-40.5 -25t-49.5 -8q-27 0 -50 8t-40 25t-27 43.5t-10 63.5z"/>
    <glyph glyph-name="at" unicode="@" horiz-adv-x="1707" d="M1722 731q0 -140 -44.5 -258t-124.5 -184t-185 -66q-85 0 -143 49.5t-72 128.5h-10q-39 -83 -114 -130.5t-175 -47.5q-152 0 -239 101.5t-87 279.5q0 133 53.5 238.5t153.5 164t228 58.5q69 0 157.5 -12.5t155.5 -36.5l-23 -468v-22q0 -176 127 -176q89 0 144 105t55 278 q0 179 -73.5 314t-209 207.5t-309.5 72.5q-220 0 -383.5 -91.5t-250.5 -261t-87 -394.5q0 -302 159 -464.5t462 -162.5q212 0 440 88v-139q-200 -84 -440 -84q-364 0 -566 199.5t-202 555.5q0 259 107.5 462.5t305.5 315t455 111.5q215 0 383.5 -91t260 -258t91.5 -382z M688 600q0 -250 193 -250q205 0 223 309l12 256q-73 21 -151 21q-129 0 -203 -89t-74 -247z"/>
    <glyph glyph-name="A" unicode="A" horiz-adv-x="1309" d="M1116 0l-176 453h-580l-174 -453h-186l571 1468h166l570 -1468h-191zM885 616l-164 443l-70 219q-30 -120 -63 -219l-166 -443h463z"/>
    <glyph glyph-name="B" unicode="B" horiz-adv-x="1331" d="M199 1462h417q294 0 424.5 -87.5t130.5 -274.5q0 -130 -71 -214.5t-207 -109.5v-10q169 -29 248.5 -117t79.5 -233q0 -196 -134 -306t-374 -110h-514v1462zM383 840h270q172 0 250 55t78 184q0 120 -85.5 173t-270.5 53h-242v-465zM383 686v-530h295q176 0 261 68t85 206 q0 131 -90 193.5t-270 62.5h-281z"/>
    <glyph glyph-name="C" unicode="C" horiz-adv-x="1294" d="M825 1321q-236 0 -371 -158t-135 -432q0 -283 131 -436.5t373 -153.5q156 0 351 58v-160q-93 -34 -179 -46.5t-198 -12.5q-323 0 -497.5 196.5t-174.5 556.5q0 226 83.5 396t243 262t375.5 92q232 0 404 -86l-74 -156q-175 80 -332 80z"/>
    <glyph glyph-name="D" unicode="D" horiz-adv-x="1495" d="M1370 745q0 -362 -197.5 -553.5t-566.5 -191.5h-407v1462h450q341 0 531 -187.5t190 -529.5zM1176 739q0 279 -137.5 422.5t-415.5 143.5h-240v-1147h199q594 0 594 581z"/>
    <glyph glyph-name="E" unicode="E" horiz-adv-x="1139" d="M1016 0h-817v1462h817v-162h-633v-456h596v-160h-596v-522h633v-162z"/>
    <glyph glyph-name="F" unicode="F" horiz-adv-x="1063" d="M383 0h-184v1462h817v-162h-633v-518h594v-161h-594v-621z"/>
    <glyph glyph-name="G" unicode="G" horiz-adv-x="1491" d="M834 772h505v-717q-116 -37 -236 -56t-278 -19q-334 0 -517 198t-183 553q0 229 91 400t262.5 261.5t404.5 90.5q234 0 436 -86l-70 -160q-193 84 -377 84q-261 0 -408 -158t-147 -432q0 -290 141 -441t410 -151q147 0 287 35v434h-321v164z"/>
    <glyph glyph-name="H" unicode="H" horiz-adv-x="1518" d="M1317 0h-184v682h-750v-682h-184v1462h184v-618h750v618h184v-1462z"/>
    <glyph glyph-name="I" unicode="I" horiz-adv-x="694" d="M610 0h-528v106l172 39v1170l-172 41v106h528v-106l-172 -41v-1170l172 -39v-106z"/>
    <glyph glyph-name="J" unicode="J" horiz-adv-x="559" d="M-8 -389q-94 0 -152 27v155q71 -20 148 -20q100 0 150 60.5t50 174.5v1454h185v-1439q0 -198 -98.5 -305t-282.5 -107z"/>
    <glyph glyph-name="K" unicode="K" horiz-adv-x="1268" d="M1268 0h-217l-519 698l-149 -131v-567h-184v1462h184v-721l126 139l521 582h215l-579 -637z"/>
    <glyph glyph-name="L" unicode="L" horiz-adv-x="1073" d="M199 0v1462h184v-1298h639v-164h-823z"/>
    <glyph glyph-name="M" unicode="M" horiz-adv-x="1858" d="M844 0l-482 1282h-8q15 -160 15 -395v-887h-170v1462h272l451 -1198h8l459 1198h270v-1462h-182v899q0 150 14 381h-8l-488 -1280h-151z"/>
    <glyph glyph-name="N" unicode="N" horiz-adv-x="1556" d="M1358 0h-215l-783 1214h-8l5 -81q12 -182 12 -316v-817h-170v1462h213l45 -71l480 -742l255 -397h8q-2 24 -8 171.5t-6 213.5v825h172v-1462z"/>
    <glyph glyph-name="O" unicode="O" horiz-adv-x="1599" d="M1475 733q0 -351 -177.5 -552t-496.5 -201q-323 0 -499.5 197.5t-176.5 557.5q0 357 175.5 553.5t502.5 196.5q318 0 495 -199.5t177 -552.5zM319 733q0 -290 123 -442t359 -152q235 0 357 150t122 444q0 293 -121 441.5t-356 148.5q-238 0 -361 -150.5t-123 -439.5z"/>
    <glyph glyph-name="P" unicode="P" horiz-adv-x="1239" d="M1135 1032q0 -224 -153 -343.5t-431 -119.5h-168v-569h-184v1462h387q549 0 549 -430zM383 727h147q218 0 316 70.5t98 226.5q0 141 -91 211t-284 70h-186v-578z"/>
    <glyph glyph-name="Q" unicode="Q" horiz-adv-x="1599" d="M1475 733q0 -277 -111 -462t-315 -255l350 -364h-264l-283 330l-51 -2q-323 0 -499.5 197.5t-176.5 557.5q0 357 175.5 553.5t502.5 196.5q318 0 495 -199.5t177 -552.5zM319 733q0 -290 123 -442t359 -152q235 0 357 150t122 444q0 293 -121 441.5t-356 148.5 q-238 0 -361 -150.5t-123 -439.5z"/>
    <glyph glyph-name="R" unicode="R" horiz-adv-x="1274" d="M383 760h219q178 0 260 70t82 208t-83 201.5t-269 63.5h-209v-543zM383 604v-604h-184v1462h403q272 0 402.5 -103.5t130.5 -311.5q0 -291 -293 -392l401 -655h-215l-354 604h-291z"/>
    <glyph glyph-name="S" unicode="S" horiz-adv-x="1124" d="M1028 391q0 -191 -138 -301t-384 -110q-260 0 -402 69v176q93 -40 203.5 -63t206.5 -23q164 0 247 63t83 173q0 73 -30 120t-100.5 88t-213.5 93q-203 74 -290 174.5t-87 259.5q0 171 128.5 272t338.5 101q219 0 403 -82l-57 -158q-188 78 -350 78q-130 0 -203.5 -56 t-73.5 -157q0 -72 28.5 -119.5t92 -86.5t199.5 -89q163 -60 243 -116.5t118 -130t38 -175.5z"/>
    <glyph glyph-name="T" unicode="T" horiz-adv-x="1139" d="M662 0h-185v1300h-457v162h1096v-162h-454v-1300z"/>
    <glyph glyph-name="U" unicode="U" horiz-adv-x="1497" d="M1311 1462v-946q0 -250 -151 -393t-419 -143q-265 0 -411 144.5t-146 395.5v942h185v-948q0 -179 95.5 -277t287.5 -98q181 0 278.5 97t97.5 280v946h183z"/>
    <glyph glyph-name="V" unicode="V" horiz-adv-x="1229" d="M0 1462h193l329 -938q63 -178 92 -319q25 126 93 323l327 934h195l-522 -1462h-185z"/>
    <glyph glyph-name="W" unicode="W" horiz-adv-x="1905" d="M1489 0h-186l-285 958q-63 214 -74 289q-16 -115 -70 -295l-276 -952h-186l-387 1462h192l227 -893q46 -175 70 -348q22 164 78 359l258 882h190l269 -889q52 -173 80 -352q16 138 71 350l226 891h192z"/>
    <glyph glyph-name="X" unicode="X" horiz-adv-x="1200" d="M1192 0h-209l-387 635l-393 -635h-195l486 762l-455 700h205l358 -573l361 573h194l-452 -696z"/>
    <glyph glyph-name="Y" unicode="Y" horiz-adv-x="1159" d="M580 743l381 719h198l-487 -895v-567h-185v559l-487 903h201z"/>
    <glyph glyph-name="Z" unicode="Z" d="M1092 0h-1014v139l770 1159h-746v164h969v-139l-770 -1159h791v-164z"/>
    <glyph glyph-name="bracketleft" unicode="[" horiz-adv-x="674" d="M569 -500h-405v2138h405v-139h-223v-1859h223v-140z"/>
    <glyph glyph-name="backslash" unicode="\" horiz-adv-x="762" d="M198 1638l544 -2138h-178l-544 2138h178z"/>
    <glyph glyph-name="bracketright" unicode="]" horiz-adv-x="674" d="M51 -360h223v1859h-223v139h406v-2138h-406v140z"/>
    <glyph glyph-name="asciicircum" unicode="^" d="M81 549l459 924h102l447 -924h-161l-337 735l-349 -735h-161z"/>
    <glyph glyph-name="underscore" unicode="_" horiz-adv-x="909" d="M913 -315h-917v131h917v-131z"/>
    <glyph glyph-name="grave" unicode="`" horiz-adv-x="1188" d="M799 1241h-121q-75 60 -164.5 155.5t-126.5 151.5v21h215q32 -66 91 -157.5t106 -145.5v-25z"/>
    <glyph glyph-name="a" unicode="a" horiz-adv-x="1149" d="M852 0l-35 156h-8q-82 -103 -163.5 -139.5t-205.5 -36.5q-162 0 -254 85t-92 240q0 334 527 350l186 7v65q0 125 -54 184.5t-173 59.5q-87 0 -164.5 -26t-145.5 -58l-55 135q83 44 181 69t194 25q199 0 296 -88t97 -280v-748h-131zM481 125q151 0 237.5 81.5t86.5 231.5 v99l-162 -7q-189 -7 -275.5 -60t-86.5 -167q0 -86 52.5 -132t147.5 -46z"/>
    <glyph glyph-name="b" unicode="b" horiz-adv-x="1260" d="M694 1116q217 0 335 -149.5t118 -417.5q0 -272 -120 -420.5t-333 -148.5q-111 0 -198 40t-142 119h-14q-31 -120 -37 -139h-129v1556h180v-378q0 -113 -10 -226h10q111 164 340 164zM664 967q-166 0 -238 -94t-72 -318v-8q0 -225 73.5 -321.5t240.5 -96.5 q148 0 220.5 108.5t72.5 313.5q0 208 -73 312t-224 104z"/>
    <glyph glyph-name="c" unicode="c" horiz-adv-x="983" d="M614 -20q-237 0 -369 145.5t-132 417.5q0 276 133.5 425.5t380.5 149.5q80 0 158.5 -16.5t129.5 -42.5l-55 -150q-139 52 -237 52q-166 0 -245 -104.5t-79 -311.5q0 -199 79 -304.5t234 -105.5q145 0 285 64v-160q-114 -59 -283 -59z"/>
    <glyph glyph-name="d" unicode="d" horiz-adv-x="1260" d="M563 -20q-214 0 -332 148t-118 419q0 269 118.5 420t333.5 151q221 0 340 -162h13q-3 20 -8 80.5t-5 81.5v438h180v-1556h-145l-27 147h-8q-115 -167 -342 -167zM592 129q164 0 239.5 89.5t75.5 293.5v33q0 229 -76.5 326.5t-240.5 97.5q-139 0 -215 -110.5t-76 -315.5 q0 -204 75.5 -309t217.5 -105z"/>
    <glyph glyph-name="e" unicode="e" horiz-adv-x="1155" d="M641 -20q-247 0 -387.5 149.5t-140.5 411.5q0 264 131 420.5t354 156.5q207 0 330 -133.5t123 -361.5v-109h-752q5 -187 95 -284t255 -97q88 0 167 15.5t185 60.5v-158q-91 -39 -171 -55t-189 -16zM596 971q-129 0 -204 -83t-89 -231h559q-2 154 -71 234t-195 80z"/>
    <glyph glyph-name="f" unicode="f" horiz-adv-x="705" d="M680 958h-277v-958h-180v958h-192v84l192 62v63q0 200 87.5 300t269.5 100q105 0 213 -37l-48 -141q-93 30 -163 30q-91 0 -135 -60t-44 -190v-71h277v-140z"/>
    <glyph glyph-name="g" unicode="g" horiz-adv-x="1260" d="M592 127q166 0 241.5 89.5t75.5 287.5v43q0 220 -76 320t-245 100q-138 0 -213.5 -109.5t-75.5 -312.5q0 -204 73.5 -311t219.5 -107zM907 10l6 135h-8q-111 -165 -340 -165q-213 0 -332.5 148.5t-119.5 418.5q0 265 120.5 418t329.5 153q223 0 344 -166h11l24 146h143 v-1116q0 -236 -119.5 -355t-371.5 -119q-240 0 -395 70v166q160 -86 405 -86q140 0 221.5 82t81.5 227v43z"/>
    <glyph glyph-name="h" unicode="h" horiz-adv-x="1266" d="M922 0v702q0 134 -59.5 199.5t-186.5 65.5q-167 0 -244.5 -93t-77.5 -307v-567h-180v1556h180v-456q0 -90 -10 -154h12q49 80 139 125t203 45q200 0 301 -95.5t101 -305.5v-715h-178z"/>
    <glyph glyph-name="i" unicode="i" horiz-adv-x="528" d="M354 0h-180v1098h180v-1098zM160 1395q0 60 30.5 87t75.5 27q42 0 73.5 -27t31.5 -87q0 -59 -31.5 -87t-73.5 -28q-45 0 -75.5 28t-30.5 87z"/>
    <glyph glyph-name="j" unicode="j" horiz-adv-x="528" d="M45 -492q-94 0 -158 25v145q69 -20 136 -20q78 0 114.5 42.5t36.5 129.5v1268h180v-1262q0 -164 -78.5 -246t-230.5 -82zM160 1395q0 60 30.5 87t75.5 27q42 0 73.5 -27t31.5 -87q0 -59 -31.5 -87t-73.5 -28q-45 0 -75.5 28t-30.5 87z"/>
    <glyph glyph-name="k" unicode="k" horiz-adv-x="1094" d="M352 565l61 78l70 84l351 371h210l-444 -469l475 -629h-217l-381 512l-125 -109v-403h-178v1556h178v-813l-8 -178h8z"/>
    <glyph glyph-name="l" unicode="l" horiz-adv-x="528" d="M354 0h-180v1556h180v-1556z"/>
    <glyph glyph-name="m" unicode="m" horiz-adv-x="1915" d="M1571 0v707q0 260 -223 260q-153 0 -225 -89t-72 -272v-606h-179v707q0 130 -54.5 195t-170.5 65q-152 0 -222.5 -93t-70.5 -305v-569h-180v1098h145l27 -150h10q47 80 132.5 125t191.5 45q258 0 336 -184h10q53 88 144.5 136t207.5 48q186 0 278.5 -96t92.5 -307v-715 h-178z"/>
    <glyph glyph-name="n" unicode="n" horiz-adv-x="1266" d="M922 0v702q0 134 -59.5 199.5t-186.5 65.5q-169 0 -245.5 -93.5t-76.5 -304.5v-569h-180v1098h145l27 -150h10q51 81 143 125.5t203 44.5q202 0 300 -98t98 -305v-715h-178z"/>
    <glyph glyph-name="o" unicode="o" horiz-adv-x="1239" d="M1128 551q0 -269 -136 -420t-376 -151q-149 0 -264 69.5t-177 199.5t-62 302q0 268 134 417.5t376 149.5q232 0 368.5 -152.5t136.5 -414.5zM299 551q0 -207 81.5 -314.5t240.5 -107.5q157 0 239 107.5t82 314.5t-82.5 311.5t-241.5 104.5q-319 0 -319 -416z"/>
    <glyph glyph-name="p" unicode="p" horiz-adv-x="1260" d="M694 -20q-221 0 -340 159h-12l4 -41q8 -78 8 -139v-451h-180v1590h148l24 -150h8q64 90 148 130t194 40q214 0 332.5 -148.5t118.5 -418.5q0 -269 -119 -420t-334 -151zM664 967q-163 0 -235.5 -92t-74.5 -289v-35q0 -223 74 -322.5t240 -99.5q138 0 215.5 112t77.5 312 q0 201 -77.5 307.5t-219.5 106.5z"/>
    <glyph glyph-name="q" unicode="q" horiz-adv-x="1260" d="M594 129q161 0 235 88t78 291v37q0 227 -76 325.5t-241 98.5q-141 0 -216 -111t-75 -315q0 -201 74.5 -307.5t220.5 -106.5zM559 -20q-212 0 -329 150t-117 417q0 268 119.5 419.5t332.5 151.5q225 0 342 -170h8l27 150h143v-1590h-180v469q0 110 10 170h-12 q-115 -167 -344 -167z"/>
    <glyph glyph-name="r" unicode="r" horiz-adv-x="846" d="M686 1118q73 0 129 -12l-22 -166q-61 14 -119 14q-87 0 -161.5 -48t-116.5 -132.5t-42 -187.5v-586h-180v1098h148l20 -201h8q63 109 149 165t187 56z"/>
    <glyph glyph-name="s" unicode="s" horiz-adv-x="981" d="M889 303q0 -154 -115 -238.5t-323 -84.5q-217 0 -345 69v164q181 -88 349 -88q136 0 198 44t62 118q0 65 -59.5 110t-211.5 103q-155 60 -218 102.5t-92.5 95.5t-29.5 129q0 135 110 213t302 78q187 0 350 -74l-61 -143q-167 70 -301 70q-112 0 -170 -35.5t-58 -97.5 q0 -60 50 -99.5t233 -109.5q137 -51 202.5 -95t96.5 -99t31 -132z"/>
    <glyph glyph-name="t" unicode="t" horiz-adv-x="739" d="M541 127q35 0 82 7t71 16v-138q-25 -11 -77.5 -21.5t-106.5 -10.5q-322 0 -322 339v639h-155v86l157 72l72 234h107v-252h317v-140h-317v-634q0 -95 45.5 -146t126.5 -51z"/>
    <glyph glyph-name="u" unicode="u" horiz-adv-x="1266" d="M344 1098v-707q0 -133 59.5 -197.5t184.5 -64.5q169 0 246 94t77 303v572h181v-1098h-148l-26 145h-9q-49 -79 -139 -122t-209 -43q-198 0 -298.5 95t-100.5 304v719h182z"/>
    <glyph glyph-name="v" unicode="v" horiz-adv-x="1040" d="M416 0l-416 1098h193l233 -647q69 -195 88 -291h8q3 13 7.5 29.5t10.5 36t74 225.5l234 647h192l-417 -1098h-207z"/>
    <glyph glyph-name="w" unicode="w" horiz-adv-x="1610" d="M1071 0l-188 618q-26 77 -76 291h-8q-42 -195 -74 -293l-197 -616h-204l-301 1098h186q104 -405 158.5 -616t64.5 -298h8l14 62q31 143 60 233l195 619h196l189 -619q10 -35 21.5 -74.5t21.5 -78t18 -75t12 -65.5h9q9 76 73 326l154 586h184l-305 -1098h-211z"/>
    <glyph glyph-name="x" unicode="x" horiz-adv-x="1083" d="M434 561l-379 537h205l283 -414l280 414h203l-379 -537l400 -561h-205l-299 438l-303 -438h-203z"/>
    <glyph glyph-name="y" unicode="y" horiz-adv-x="1044" d="M2 1098h193l237 -625q75 -204 92 -299h8q9 37 41 138.5t54 162.5l223 623h194l-473 -1250q-69 -182 -164 -261t-235 -79q-75 0 -149 17v143q50 -12 120 -12q86 0 146 47.5t98 146.5l57 146z"/>
    <glyph glyph-name="z" unicode="z" horiz-adv-x="963" d="M883 0h-803v119l590 839h-555v140h753v-135l-581 -824h596v-139z"/>
    <glyph glyph-name="braceleft" unicode="{" horiz-adv-x="756" d="M501 882q0 -131 -59.5 -206.5t-174.5 -100.5v-12q115 -25 174.5 -101t59.5 -206v-411q0 -60 12 -97.5t34.5 -59.5t55 -30t72.5 -9v-149q-77 1 -142.5 21t-113 63.5t-74.5 110t-27 161.5v405q0 63 -16.5 107t-49 71.5t-80.5 39.5t-110 12v155q125 0 190.5 52.5t65.5 177.5 v406q0 95 27 161.5t74.5 110t113 63.5t142.5 21v-150q-40 -1 -72.5 -9t-55 -30t-34.5 -59.5t-12 -97.5v-410zM251 1463zM241 1726zM190 0zM212 -690z"/>
    <glyph glyph-name="bar" unicode="|" horiz-adv-x="1128" d="M489 1639h150v-2139h-150v2139zM451 1463zM441 1726zM390 0zM412 -690z"/>
    <glyph glyph-name="braceright" unicode="}" horiz-adv-x="756" d="M256 256q0 131 59.5 206.5t174.5 100.5v12q-115 25 -174.5 101t-59.5 206v411q0 60 -12 97.5t-34.5 59.5t-55 30t-72.5 9v149q77 -1 142.5 -21t113 -63.5t74.5 -110t27 -161.5v-405q0 -63 16.5 -107t49 -71.5t80.5 -39.5t110 -12v-155q-125 0 -190.5 -52.5t-65.5 -177.5 v-406q0 -95 -27 -161.5t-74.5 -110t-113 -63.5t-142.5 -21v150q40 1 72.5 9t55 30t34.5 59.5t12 97.5v410zM451 1463zM441 1726zM490 0zM512 -690z"/>
    <glyph glyph-name="asciitilde" unicode="~" d="M552 653q-37 16 -67 27t-55.5 17.5t-48 9t-44.5 2.5q-29 0 -59.5 -9.5t-61 -26t-59.5 -38.5t-54 -47v160q100 108 246 108q29 0 57.5 -2.5t60 -10t68.5 -20t84 -32.5q37 -16 67 -27t55.5 -17.5t47.5 -9t43 -2.5q30 0 61.5 9.5t62 25.5t59 38t53.5 48v-158 q-50 -54 -110.5 -82t-135.5 -28q-29 0 -57.5 2.5t-60.5 10t-69 20t-83 32.5z"/>
    <glyph glyph-name="uni00AD" unicode="­" horiz-adv-x="659" d="M82 465v168h496v-168h-496zM324 1134zM324 0z"/>
    <glyph glyph-name="multiply" unicode="×" d="M586 825l350 351l102 -105l-348 -348l346 -348l-102 -105l-350 346l-342 -346l-107 105l346 348l-348 346l107 107zM580 0zM591 1463z"/>
    <glyph glyph-name="divide" unicode="÷" d="M585 1194q54 0 83.5 -31t29.5 -92q-1 -61 -31.5 -93t-81.5 -32q-53 0 -84 32.5t-31 92.5q0 123 115 123zM104 649v146h964v-146h-964zM585 496q54 0 83.5 -31t29.5 -92q0 -60 -30.5 -92.5t-82.5 -32.5q-55 0 -85 32.5t-30 92.5q0 123 115 123zM580 0zM591 1463z"/>
    <glyph glyph-name="uni0307" unicode="̇" horiz-adv-x="0" d="M-612 1550q48 0 77 -30t29 -85q0 -53 -29 -83.5t-77 -30.5q-49 0 -78 30t-29 84q0 56 29 85.5t78 29.5zM-817 1726zM-830 1462z"/>
    <glyph glyph-name="dotbelowcomb" unicode="̣" horiz-adv-x="0" d="M-612 -163q48 0 77 -30t29 -85q0 -53 -29 -83.5t-77 -30.5q-49 0 -78 30t-29 84q0 56 29 85.5t78 29.5zM-847 0zM-843 -690z"/>
    <glyph glyph-name="uni0964" unicode="।" horiz-adv-x="717" d="M360 -100v1334h177v-1334h-177zM628 1134zM617 0z"/>
    <glyph glyph-name="uni0965" unicode="॥" horiz-adv-x="1167" d="M360 -100v1334h177v-1334h-177zM810 -100v1334h177v-1334h-177zM659 1134zM684 0z"/>
    <glyph glyph-name="uni0D02" unicode="ം" horiz-adv-x="927" d="M65 361q0 169 110.5 276t286.5 107q179 0 289.5 -105t110.5 -278t-110.5 -279t-288.5 -106q-180 0 -289 106t-109 279zM238 358q0 -112 61.5 -177t163.5 -65q103 0 164.5 64.5t61.5 180.5q0 115 -61 179t-166 64q-104 0 -164 -64.5t-60 -181.5zM457 1134z"/>
    <glyph glyph-name="uni0D03" unicode="ഃ" horiz-adv-x="689" d="M344 1162q123 0 200.5 -75.5t77.5 -191.5t-77.5 -190.5t-200.5 -74.5q-124 0 -200.5 75t-76.5 190t77.5 191t199.5 76zM344 764q63 0 98.5 36.5t35.5 96.5q0 58 -36.5 94.5t-97.5 36.5q-60 0 -96 -36t-36 -95t34.5 -96t97.5 -37zM344 508q123 0 200.5 -75.5t77.5 -191.5 t-77.5 -190.5t-200.5 -74.5q-124 0 -200.5 75t-76.5 190t77.5 191t199.5 76zM344 110q63 0 98.5 36.5t35.5 96.5q0 58 -36.5 94.5t-97.5 36.5q-60 0 -96 -36t-36 -95t34.5 -96t97.5 -37z"/>
    <glyph glyph-name="uni0D05" unicode="അ" horiz-adv-x="3058" d="M1917 0h-177v575q0 175 -36.5 261.5t-120.5 137t-238 50.5q-34 0 -66 -3q88 -44 132 -111t44 -156q0 -84 -42.5 -139t-125.5 -91q92 -32 141 -96t49 -149q0 -138 -100.5 -220.5t-285.5 -82.5q-218 0 -341 138t-123 367q0 167 67 300.5t202 232.5q-59 6 -131 6 q-237 0 -370 -125t-133 -336q0 -296 249 -448l-101 -129q-157 89 -243.5 241.5t-86.5 343.5q0 177 79.5 313.5t231 209t360.5 72.5q173 0 321 -51q134 51 298 51q151 0 262 -48t198 -157q93 111 206 158t260 47q211 0 365 -80t235.5 -232.5t81.5 -354.5 q0 -252 -114.5 -385.5t-319.5 -133.5q-119 0 -209.5 53.5t-139.5 152t-49 220.5q0 193 105 309t280 116q138 0 245 -95q-53 133 -177.5 207.5t-301.5 74.5q-123 0 -206.5 -43t-128.5 -126.5t-45 -253.5v-591zM1091 974q-141 -64 -216.5 -200.5t-75.5 -284.5 q0 -180 77.5 -278t218.5 -98q210 0 210 170q0 79 -62 121t-179 42h-39v144h29q229 0 229 165q0 79 -48 133.5t-144 85.5zM2806 559q-96 125 -240 125q-120 0 -183.5 -72.5t-63.5 -205.5q0 -140 57.5 -213t167.5 -73q135 0 199.5 96.5t64.5 288.5q0 24 -2 54zM579 144z"/>
    <glyph glyph-name="uni0D06" unicode="ആ" horiz-adv-x="3372" d="M1072 1111q134 51 298 51q150 0 261.5 -48t197.5 -156q83 102 197.5 153t260.5 51q227 0 384 -106t225 -305q198 -58 308 -209t110 -356q0 -283 -168 -440.5t-473 -157.5q-183 0 -343 60l57 143q122 -53 291 -53q227 0 344 116.5t117 333.5q0 136 -51.5 234t-153.5 157 q7 -59 7 -121q0 -233 -114 -357.5t-322 -124.5q-118 0 -205 48.5t-133 136.5t-46 190q0 204 139.5 317t397.5 113q25 0 49 -1q-58 117 -162.5 175.5t-256.5 58.5q-112 0 -201.5 -46t-129.5 -131.5t-40 -246.5v-590h-177v575q0 175 -36.5 261.5t-120.5 137t-238 50.5 q-34 0 -66 -3q88 -44 132 -111t44 -156q0 -84 -42.5 -139t-125.5 -91q92 -32 141 -96t49 -149q0 -138 -100.5 -220.5t-285.5 -82.5q-218 0 -341 138t-123 367q0 167 67 300.5t202 232.5q-59 6 -131 6q-237 0 -370 -125t-133 -336q0 -296 249 -448l-101 -129 q-157 89 -243.5 241.5t-86.5 343.5q0 177 79.5 313.5t231 209t360.5 72.5q173 0 321 -51zM1091 974q-141 -64 -216.5 -200.5t-75.5 -284.5q0 -180 77.5 -278t218.5 -98q210 0 210 170q0 79 -62 121t-179 42h-39v144h29q229 0 229 165q0 79 -48 133.5t-144 85.5zM2755 633 q-41 7 -91 7q-184 0 -275.5 -72.5t-91.5 -216.5q0 -103 56 -168t159 -65q126 0 192.5 88.5t66.5 254.5q0 92 -16 172zM669 144zM1422 -690z"/>
    <glyph glyph-name="uni0D07" unicode="ഇ" horiz-adv-x="2019" d="M1100 997q58 81 151 123t205 42q144 0 253.5 -69.5t169.5 -195.5t60 -270q0 -163 -44.5 -282t-134.5 -198.5t-219 -113t-344 -33.5h-662q-116 0 -164 -14t-70.5 -42.5t-22.5 -69.5q0 -72 54 -105t198 -33h1365v-148h-1372q-220 0 -321 74t-101 198q0 79 32.5 141 t115 102.5t238.5 40.5h684q214 0 331.5 37.5t187 139.5t69.5 306q0 97 -37 189t-109 145t-173 53q-91 0 -145.5 -43.5t-76.5 -113t-22 -215.5v-393h-177v383q0 141 -31 217t-105 122.5t-210 46.5q-297 0 -408 -227q97 61 205 61q143 0 224 -82.5t81 -216.5 q0 -140 -91.5 -228.5t-252.5 -88.5t-255.5 106t-94.5 295q0 146 73 267t209 189.5t314 68.5q149 0 252 -40t171 -125zM235 621q5 -245 194 -245q83 0 129.5 48.5t46.5 127.5q0 78 -43.5 121.5t-123.5 43.5q-112 0 -203 -96zM722 -690z"/>
    <glyph glyph-name="uni0D08" unicode="ഈ" horiz-adv-x="3574" d="M1100 997q58 81 151 123t205 42q144 0 253.5 -69.5t169.5 -195.5t60 -270q0 -163 -44.5 -282t-134.5 -198.5t-219 -113t-344 -33.5h-662q-116 0 -164 -14t-70.5 -42.5t-22.5 -69.5q0 -72 54 -105t198 -33h1365v-148h-1372q-220 0 -321 74t-101 198q0 79 32.5 141 t115 102.5t238.5 40.5h684q214 0 331.5 37.5t187 139.5t69.5 306q0 97 -37 189t-109 145t-173 53q-91 0 -145.5 -43.5t-76.5 -113t-22 -215.5v-393h-177v383q0 141 -31 217t-105 122.5t-210 46.5q-297 0 -408 -227q97 61 205 61q143 0 224 -82.5t81 -216.5 q0 -140 -91.5 -228.5t-252.5 -88.5t-255.5 106t-94.5 295q0 146 73 267t209 189.5t314 68.5q149 0 252 -40t171 -125zM235 621q5 -245 194 -245q83 0 129.5 48.5t46.5 127.5q0 78 -43.5 121.5t-123.5 43.5q-112 0 -203 -96zM722 -690zM2134 521q-20 56 -31 125.5t-11 128.5 q0 172 104 279.5t286 107.5q185 0 290 -156q56 82 130 119t172 37q193 0 306.5 -146t113.5 -392q0 -312 -146 -480t-413 -168q-136 0 -241.5 24t-216.5 81l89 141q84 -51 169 -74.5t190 -23.5q193 0 291 123t98 378q0 187 -63 288t-176 101q-67 0 -109 -22.5t-65.5 -60.5 t-30.5 -90.5t-7 -143.5v-169h-174v154q0 132 -19 195t-67.5 100.5t-117.5 37.5q-101 0 -158.5 -69t-57.5 -184q0 -111 30 -208z"/>
    <glyph glyph-name="uni0D09" unicode="ഉ" horiz-adv-x="1417" d="M1297 -264v-148h-774q-220 0 -321 74t-101 198q0 79 32.5 141t115 102.5t238.5 40.5h23q262 0 389 40t192.5 135.5t65.5 277.5q0 184 -120 302.5t-342 118.5q-316 0 -430 -226q96 60 205 60q143 0 224 -82.5t81 -216.5q0 -140 -91.5 -228.5t-252.5 -88.5t-255.5 106 t-94.5 295q0 150 77.5 270.5t220.5 187.5t332 67q197 0 337.5 -71t214.5 -202.5t74 -292.5q0 -154 -45.5 -267t-141.5 -188.5t-235.5 -108t-375.5 -32.5h-4q-116 0 -164 -14t-70.5 -42.5t-22.5 -69.5q0 -72 54 -105t198 -33h767zM235 621q5 -245 194 -245q83 0 129.5 48.5 t46.5 127.5q0 78 -43.5 121.5t-123.5 43.5q-112 0 -203 -96zM722 -690z"/>
    <glyph glyph-name="uni0D0A" unicode="ഊ" horiz-adv-x="2972" d="M1297 -264v-148h-774q-220 0 -321 74t-101 198q0 79 32.5 141t115 102.5t238.5 40.5h23q262 0 389 40t192.5 135.5t65.5 277.5q0 184 -120 302.5t-342 118.5q-316 0 -430 -226q96 60 205 60q143 0 224 -82.5t81 -216.5q0 -140 -91.5 -228.5t-252.5 -88.5t-255.5 106 t-94.5 295q0 150 77.5 270.5t220.5 187.5t332 67q197 0 337.5 -71t214.5 -202.5t74 -292.5q0 -154 -45.5 -267t-141.5 -188.5t-235.5 -108t-375.5 -32.5h-4q-116 0 -164 -14t-70.5 -42.5t-22.5 -69.5q0 -72 54 -105t198 -33h767zM235 621q5 -245 194 -245q83 0 129.5 48.5 t46.5 127.5q0 78 -43.5 121.5t-123.5 43.5q-112 0 -203 -96zM722 -690zM1532 521q-20 56 -31 125.5t-11 128.5q0 172 104 279.5t286 107.5q185 0 290 -156q56 82 130 119t172 37q193 0 306.5 -146t113.5 -392q0 -312 -146 -480t-413 -168q-136 0 -241.5 24t-216.5 81l89 141 q84 -51 169 -74.5t190 -23.5q193 0 291 123t98 378q0 187 -63 288t-176 101q-67 0 -109 -22.5t-65.5 -60.5t-30.5 -90.5t-7 -143.5v-169h-174v154q0 132 -19 195t-67.5 100.5t-117.5 37.5q-101 0 -158.5 -69t-57.5 -184q0 -111 30 -208z"/>
    <glyph glyph-name="uni0D0B" unicode="ഋ" horiz-adv-x="1784" d="M403 229q-145 56 -236.5 190.5t-91.5 315.5q0 197 103 312t281 115q163 0 256.5 -94.5t93.5 -242.5q0 -138 -86 -225t-236 -87q-139 0 -239 71q43 -95 116.5 -156.5t185.5 -84.5t310 -23h50q195 0 312.5 21t193.5 79.5t120 163.5q-103 -71 -239 -71q-153 0 -237.5 88.5 t-84.5 228.5q0 146 98 239t267 93q170 0 269.5 -113.5t99.5 -306.5q0 -195 -95.5 -328.5t-239.5 -181.5q133 -41 200 -113.5t67 -175.5q0 -196 -183 -287.5t-558 -91.5q-397 0 -577 91t-180 294q0 98 65 168t195 112zM1550 748q-6 137 -61 204.5t-154 67.5 q-92 0 -143.5 -51.5t-51.5 -137.5q0 -81 47.5 -127t135.5 -46q64 0 119 19.5t108 70.5zM234 755q51 -55 106 -76t121 -21q88 0 135.5 46t47.5 127q0 84 -50 136.5t-136 52.5q-103 0 -161.5 -67.5t-62.5 -197.5zM894 172h-16q-293 0 -424.5 -55.5t-131.5 -171.5 q0 -127 134.5 -180t441.5 -53q289 0 426.5 54t137.5 176q0 118 -127.5 174t-440.5 56zM822 -690z"/>
    <glyph glyph-name="uni0D0C" unicode="ഌ" horiz-adv-x="2389" d="M1248 0h-177v627q0 165 -40 240.5t-114 111.5t-186 36q-185 0 -312.5 -113t-159.5 -308q118 78 248 78q152 0 243 -89.5t91 -245.5q0 -166 -94.5 -263.5t-255.5 -97.5q-119 0 -212.5 60.5t-143.5 178t-50 279.5q0 201 81 352.5t230.5 233.5t337.5 82q145 0 248.5 -44.5 t188.5 -147.5q88 101 198 146.5t257 45.5q211 0 365 -80t235.5 -232.5t81.5 -354.5q0 -252 -114.5 -385.5t-319.5 -133.5q-182 0 -290 120t-108 306q0 193 105 309t280 116q138 0 245 -95q-53 133 -177.5 207.5t-301.5 74.5q-123 0 -206.5 -43t-128.5 -126.5t-45 -253.5z M2136 559q-96 125 -240 125q-120 0 -183.5 -72.5t-63.5 -205.5q0 -140 57.5 -213t167.5 -73q135 0 199.5 96.5t64.5 288.5q0 24 -2 54zM252 436q5 -151 69 -234t174 -83q79 0 127 53t48 150t-52 152t-140 55q-116 0 -226 -93z"/>
    <glyph glyph-name="uni0D0E" unicode="എ" horiz-adv-x="2608" d="M2206 -466l-129 102q130 141 195.5 325.5t65.5 403.5q0 304 -127 476.5t-368 172.5q-236 0 -364 -192t-128 -541q0 -89 4 -137h381v688h178v-947q0 -135 -32 -206t-94.5 -108t-156.5 -37q-166 0 -279 120.5t-156 345.5h-524l-59 107q89 83 89 216q0 113 -60.5 177 t-171.5 64q-104 0 -168 -65.5t-64 -163.5q0 -150 120 -230l-93 -119q-99 68 -149.5 158t-50.5 195q0 163 112 266t293 103q120 0 212 -45.5t142 -128.5t50 -180q0 -131 -63 -210h365q-6 71 -6 151q0 267 82 464t235 300t363 103q318 0 493 -208t175 -593 q0 -228 -79.5 -447.5t-232.5 -379.5zM1370 0q22 -157 90.5 -241t164.5 -84q41 0 65 17.5t35 49.5t11 105v153h-366zM722 -690z"/>
    <glyph glyph-name="uni0D0F" unicode="ഏ" horiz-adv-x="2605" d="M1355 144h381v688h178v-947q0 -135 -32 -206t-94.5 -108t-156.5 -37q-166 0 -279 120.5t-156 345.5h-524l-59 107q89 83 89 216q0 113 -60.5 177t-171.5 64q-104 0 -168 -65.5t-64 -163.5q0 -150 120 -230l-93 -119q-99 68 -149.5 158t-50.5 195q0 163 112 266t293 103 q120 0 212 -45.5t142 -128.5t50 -180q0 -131 -63 -210h365q-6 71 -6 151q0 406 200.5 636.5t565.5 230.5q185 0 315.5 -60.5t197.5 -171t67 -250.5q0 -125 -61.5 -223.5t-178.5 -160.5q262 -99 262 -369q0 -188 -106.5 -290.5t-298.5 -102.5q-38 0 -87.5 5.5t-68.5 10.5 l34 141q48 -13 112 -13q114 0 174.5 65.5t60.5 187.5q0 130 -80.5 206.5t-225.5 76.5v140q148 32 216 111t68 215q0 151 -104.5 242.5t-298.5 91.5q-287 0 -434.5 -187.5t-147.5 -545.5q0 -89 4 -137zM1370 0q22 -157 90.5 -241t164.5 -84q41 0 65 17.5t35 49.5t11 105v153 h-366zM722 -690z"/>
    <glyph glyph-name="uni0D10" unicode="ഐ" horiz-adv-x="4073" d="M950 111q120 73 184.5 187t64.5 256q0 212 -120.5 336t-325.5 124q-184 0 -320.5 -113t-176.5 -303q115 74 242 74q152 0 243 -89.5t91 -245.5q0 -166 -94.5 -263.5t-255.5 -97.5q-118 0 -212 60.5t-144 174t-50 265.5q0 203 87 359t245 241.5t354 85.5 q292 0 455.5 -159.5t163.5 -427.5q0 -192 -82.5 -340.5t-247.5 -252.5zM243 437q5 -154 69 -236t175 -82q79 0 126.5 54.5t47.5 149.5q0 96 -52.5 151t-139.5 55q-117 0 -226 -92zM885 144zM885 0zM3671 -466l-129 102q130 141 195.5 325.5t65.5 403.5q0 304 -127 476.5 t-368 172.5q-236 0 -364 -192t-128 -541q0 -89 4 -137h381v688h178v-947q0 -135 -32 -206t-94.5 -108t-156.5 -37q-166 0 -279 120.5t-156 345.5h-524l-59 107q89 83 89 216q0 113 -60.5 177t-171.5 64q-104 0 -168 -65.5t-64 -163.5q0 -150 120 -230l-93 -119 q-99 68 -149.5 158t-50.5 195q0 163 112 266t293 103q120 0 212 -45.5t142 -128.5t50 -180q0 -131 -63 -210h365q-6 71 -6 151q0 267 82 464t235 300t363 103q318 0 493 -208t175 -593q0 -228 -79.5 -447.5t-232.5 -379.5zM2835 0q22 -157 90.5 -241t164.5 -84q41 0 65 17.5 t35 49.5t11 105v153h-366zM2187 -690z"/>
    <glyph glyph-name="uni0D12" unicode="ഒ" horiz-adv-x="1524" d="M260 598q115 74 242 74q152 0 243 -89.5t91 -245.5q0 -166 -94.5 -263.5t-255.5 -97.5q-117 0 -211.5 61t-144.5 176.5t-50 270.5q0 202 96.5 357t277.5 238t423 83q273 0 411.5 -88t138.5 -250q0 -178 -193 -259q105 -37 160.5 -108.5t55.5 -165.5q0 -150 -94 -232.5 t-265 -82.5q-91 0 -189 23l37 141q73 -20 144 -20q98 0 144 42.5t46 131.5q0 64 -32 108t-83.5 66t-157.5 22h-34v144h35q122 0 185.5 47.5t63.5 134.5q0 97 -93 147.5t-276 50.5q-251 0 -414 -109.5t-207 -306.5zM247 437q5 -154 69.5 -236t173.5 -82q79 0 127 53t48 150 t-52.5 152t-139.5 55q-117 0 -226 -92z"/>
    <glyph glyph-name="uni0D13" unicode="ഓ" horiz-adv-x="2557" d="M260 598q115 74 242 74q152 0 243 -89.5t91 -245.5q0 -166 -94.5 -263.5t-255.5 -97.5q-117 0 -211.5 61t-144.5 176.5t-50 270.5q0 202 96.5 357t277.5 238t423 83q273 0 411.5 -88t138.5 -250q0 -178 -193 -259q105 -37 160.5 -108.5t55.5 -165.5q0 -150 -94 -232.5 t-265 -82.5q-91 0 -189 23l37 141q73 -20 144 -20q98 0 144 42.5t46 131.5q0 64 -32 108t-83.5 66t-157.5 22h-34v144h35q122 0 185.5 47.5t63.5 134.5q0 97 -93 147.5t-276 50.5q-251 0 -414 -109.5t-207 -306.5zM247 437q5 -154 69.5 -236t173.5 -82q79 0 127 53t48 150 t-52.5 152t-139.5 55q-117 0 -226 -92zM1558 347l178 33q65 -260 260 -260q146 0 221 115t75 334q0 216 -73.5 332.5t-212.5 116.5q-97 0 -165 -70t-97 -190l-177 34q53 182 168 276t282 94q221 0 338 -157.5t117 -433.5q0 -289 -121 -442t-354 -153q-169 0 -283.5 98.5 t-155.5 272.5z"/>
    <glyph glyph-name="uni0D14" unicode="ഔ" horiz-adv-x="3073" d="M260 598q115 74 242 74q152 0 243 -89.5t91 -245.5q0 -166 -94.5 -263.5t-255.5 -97.5q-117 0 -211.5 61t-144.5 176.5t-50 270.5q0 202 96.5 357t277.5 238t423 83q273 0 411.5 -88t138.5 -250q0 -178 -193 -259q105 -37 160.5 -108.5t55.5 -165.5q0 -150 -94 -232.5 t-265 -82.5q-91 0 -189 23l37 141q73 -20 144 -20q98 0 144 42.5t46 131.5q0 64 -32 108t-83.5 66t-157.5 22h-34v144h35q122 0 185.5 47.5t63.5 134.5q0 97 -93 147.5t-276 50.5q-251 0 -414 -109.5t-207 -306.5zM247 437q5 -154 69.5 -236t173.5 -82q79 0 127 53t48 150 t-52.5 152t-139.5 55q-117 0 -226 -92zM1633 521q-20 56 -31 125.5t-11 128.5q0 172 104 279.5t286 107.5q185 0 290 -156q56 82 130 119t172 37q193 0 306.5 -146t113.5 -392q0 -312 -146 -480t-413 -168q-136 0 -241.5 24t-216.5 81l89 141q84 -51 169 -74.5t190 -23.5 q193 0 291 123t98 378q0 187 -63 288t-176 101q-67 0 -109 -22.5t-65.5 -60.5t-30.5 -90.5t-7 -143.5v-169h-174v154q0 132 -19 195t-67.5 100.5t-117.5 37.5q-101 0 -158.5 -69t-57.5 -184q0 -111 30 -208z"/>
    <glyph glyph-name="uni0D15" unicode="ക" horiz-adv-x="2125" d="M775 74q-81 -51 -160 -74.5t-172 -23.5q-181 0 -279.5 88t-98.5 247q0 79 32 146t94.5 112.5t150 71t252.5 30.5q24 233 151.5 362t325.5 129q203 0 326.5 -126.5t148.5 -364.5q269 -5 391.5 -99t122.5 -261q0 -158 -93.5 -246.5t-263.5 -88.5q-125 0 -206 25l40 138 q72 -19 140 -19q206 0 206 189q0 104 -80 158t-254 60q-12 -267 -137.5 -409t-338.5 -142q-179 0 -298 98zM771 672h598q-17 173 -91.5 259.5t-206.5 86.5q-135 0 -210 -86.5t-90 -259.5zM1372 528h-605q6 -204 81 -306t220 -102t221 102t83 306zM678 188q-40 67 -62 152 t-26 187q-182 -2 -265 -54.5t-83 -154.5q0 -96 53.5 -147t153.5 -51q120 0 229 68z"/>
    <glyph glyph-name="uni0D16" unicode="ഖ" horiz-adv-x="2047" d="M975 111q130 114 179 217t49 226q0 212 -120.5 336t-325.5 124q-183 0 -320.5 -112.5t-178.5 -304.5q116 75 244 75q152 0 243 -89.5t91 -245.5q0 -166 -94.5 -263.5t-255.5 -97.5q-118 0 -212 60.5t-144 174t-50 265.5q0 201 87 357.5t245.5 242.5t353.5 86 q292 0 455.5 -159.5t163.5 -426.5q0 -125 -36.5 -227.5t-123.5 -204.5h498v990h179v-1134h-854zM247 437q4 -152 68.5 -235t174.5 -83q80 0 127.5 54.5t47.5 149.5q0 96 -52.5 151t-139.5 55q-118 0 -226 -92z"/>
    <glyph glyph-name="uni0D17" unicode="ഗ" horiz-adv-x="1837" d="M828 641q0 194 44 295t139 163.5t262 62.5q219 0 351.5 -154t132.5 -408q0 -186 -71.5 -332t-245.5 -285l-110 126q247 177 247 485q0 189 -83.5 304.5t-223.5 115.5q-106 0 -167 -55t-78 -151.5t-17 -291.5v-18q0 -211 -56.5 -315t-150 -155t-232.5 -51 q-227 0 -358 149.5t-131 411.5q0 197 76.5 346t240.5 278l110 -127q-247 -177 -247 -492q0 -190 82.5 -304t218.5 -114q115 0 173 50.5t76 143t18 295.5v27zM1169 144zM1169 0zM661 1134zM661 990z"/>
    <glyph glyph-name="uni0D18" unicode="ഘ" horiz-adv-x="2714" d="M1262 454v-310h1130v990h177v-1134h-1484v454h-413l-59 107q89 83 89 216q0 113 -60.5 177t-171.5 64q-104 0 -168 -65.5t-64 -163.5q0 -150 120 -230l-93 -119q-99 68 -149.5 158t-50.5 195q0 163 112 266t293 103q120 0 212 -45.5t142 -128.5t50 -180q0 -131 -63 -210 h274v43q0 193 59 301.5t168.5 164t266.5 55.5q246 0 369 -126t123 -377v-205h-809zM1894 655q0 192 -74.5 277.5t-242.5 85.5q-166 0 -240.5 -86t-74.5 -274v-60h632v57z"/>
    <glyph glyph-name="uni0D19" unicode="ങ" horiz-adv-x="2175" d="M1071 627q0 165 -40 240.5t-114 111.5t-186 36q-185 0 -312.5 -113t-159.5 -308q118 78 248 78q152 0 243 -89.5t91 -245.5q0 -166 -94.5 -263.5t-255.5 -97.5q-119 0 -212.5 60.5t-143.5 178t-50 279.5q0 201 81 352.5t230.5 233.5t337.5 82q150 0 257 -48.5t197 -163.5 q75 102 196 157t261 55q200 0 317 -88t117 -233q0 -98 -47.5 -164.5t-147.5 -109.5q106 -37 161.5 -109t55.5 -166q0 -149 -96.5 -232t-269.5 -83q-98 0 -202 23l37 141q81 -20 145 -20q107 0 158 43t51 131q0 59 -32 103t-89.5 68t-180.5 24h-54v144h53q281 0 281 192 q0 90 -64.5 139t-188.5 49q-136 0 -225 -54.5t-132.5 -154.5t-43.5 -308v-497h-177v627zM252 436q5 -151 69 -234t174 -83q79 0 127 53t48 150t-52 152t-140 55q-116 0 -226 -93z"/>
    <glyph glyph-name="uni0D1A" unicode="ച" horiz-adv-x="1911" d="M35 0v144h802q94 87 94 217q0 113 -55 177.5t-157 64.5q-100 0 -156.5 -59.5t-56.5 -165.5q0 -51 5 -79l-170 -23q-11 60 -11 122q0 158 108.5 253.5t285.5 95.5q179 0 279 -102t100 -266q0 -134 -81 -235h565v990h179v-1134h-1731z"/>
    <glyph glyph-name="uni0D1B" unicode="ഛ" horiz-adv-x="2762" d="M2479 732q-51 134 -177.5 208t-300.5 74q-226 0 -355 -121t-129 -334q0 -125 51 -231t177 -217l-73 -111h-1637v144h802q94 87 94 217q0 113 -55 177.5t-157 64.5q-100 0 -156.5 -59.5t-56.5 -165.5q0 -51 5 -79l-170 -23q-11 60 -11 122q0 158 108.5 253.5t285.5 95.5 q179 0 279 -102t100 -266q0 -134 -81 -235h479q-166 194 -166 423q0 169 77.5 306.5t228.5 213t359 75.5q209 0 362.5 -78.5t236.5 -231t83 -357.5q0 -252 -114.5 -385.5t-319.5 -133.5q-182 0 -290 120t-108 306q0 193 105 309t280 116q138 0 244 -95zM2508 561 q-47 61 -108.5 92t-129.5 31q-120 0 -183.5 -72.5t-63.5 -205.5q0 -140 57.5 -213t167.5 -73q134 0 199 96.5t65 291.5q0 19 -4 53zM1387 1134z"/>
    <glyph glyph-name="uni0D1C" unicode="ജ" horiz-adv-x="1923" d="M1035 997q67 82 159 123.5t210 41.5q133 0 232 -51t151.5 -142.5t52.5 -196.5q0 -119 -47 -196t-148 -130q70 -28 105 -80.5t35 -129.5q0 -124 -78.5 -192t-221.5 -68q-144 0 -224.5 69t-83.5 194q-119 -84 -345.5 -173.5t-426.5 -89.5q-156 0 -243 65t-87 190 q0 56 26.5 109.5t105 95t238.5 41.5h725q183 0 281 23.5t155.5 86t57.5 178.5q0 107 -72.5 180.5t-207.5 73.5q-100 0 -160.5 -40.5t-80.5 -106.5t-20 -189v-152h-169v130q0 100 -17.5 164t-62 111t-108 68t-169.5 21q-170 0 -265 -56q51 15 101 15q127 0 196 -65.5 t69 -169.5q0 -113 -80.5 -185.5t-219.5 -72.5q-146 0 -228.5 77t-82.5 213q0 105 62.5 192t184.5 138t287 51q140 0 237 -39t177 -126zM243 847q-13 -35 -13 -67q0 -82 42 -124t123 -42q72 0 109.5 37t37.5 101q0 62 -38 96.5t-116 34.5q-74 0 -145 -36zM1327 323 q-8 -31 -8 -69q0 -74 42.5 -112.5t120.5 -38.5q72 0 109.5 34.5t37.5 97.5q0 66 -41 100.5t-111 34.5q-80 0 -150 -47zM1159 355q-109 -15 -261 -15h-404q-112 0 -157.5 -10t-69 -35t-23.5 -62q0 -117 161 -117q79 0 168.5 18.5t166.5 48t289 121.5q64 28 130 51z"/>
    <glyph glyph-name="uni0D1D" unicode="ഝ" horiz-adv-x="3389" d="M2368 1134h177v-593q0 -113 8.5 -179.5t38.5 -120.5t84 -86t131 -32q139 0 230.5 119.5t91.5 298.5q0 317 -245 491l122 130q162 -130 232.5 -279.5t70.5 -341.5q0 -163 -63.5 -293t-179.5 -201t-267 -71q-112 0 -195 44t-149 143q-113 -187 -350 -187q-87 0 -161 29 t-132 98.5t-78.5 160.5t-20.5 244v31q0 266 -100.5 374t-290.5 108q-86 0 -152 -18q135 -96 210 -241t75 -314q0 -224 -109.5 -348t-306.5 -124q-196 0 -307 125t-111 347q0 173 71.5 314t207.5 239q-70 20 -164 20q-143 0 -250.5 -56t-165.5 -162.5t-58 -243.5 q0 -296 249 -448l-101 -129q-157 89 -243.5 241.5t-86.5 343.5q0 176 80 312.5t224 209.5t334 73q173 0 315 -67q147 67 302 67q211 0 332 -76t172 -192.5t51 -309.5v-42q0 -174 21 -253.5t75 -122.5t143 -43q83 0 139.5 44t78 121t21.5 217v629zM1035 935 q-111 -76 -172.5 -201.5t-61.5 -280.5q0 -166 60.5 -249.5t177.5 -83.5q236 0 236 333q0 146 -65 276t-175 206zM569 144zM569 0zM2761 990z"/>
    <glyph glyph-name="uni0D1E" unicode="ഞ" horiz-adv-x="2961" d="M1071 0v627q0 165 -40 240.5t-114 111.5t-186 36q-185 0 -312.5 -113t-159.5 -308q118 78 248 78q152 0 243 -89.5t91 -245.5q0 -166 -94.5 -263.5t-255.5 -97.5q-119 0 -212.5 60.5t-143.5 178t-50 279.5q0 201 81 352.5t230.5 233.5t337.5 82q148 0 252.5 -46.5 t190.5 -152.5q72 99 182.5 149t259.5 50q180 0 317 -66q146 66 337 66q186 0 323.5 -72.5t211 -207t73.5 -307.5q0 -384 -330 -593l-101 129q123 75 186 187.5t63 255.5q0 135 -54 243t-155 166t-237 58q-108 0 -183 -20q129 -98 199.5 -241.5t70.5 -311.5 q0 -223 -109.5 -347.5t-307.5 -124.5q-197 0 -307.5 125t-110.5 347q0 171 75.5 313t218.5 241q-65 19 -156 19q-157 0 -238.5 -54.5t-119 -141.5t-37.5 -277v-548h-177zM1933 937q-115 -73 -181.5 -201t-66.5 -283q0 -166 60.5 -249.5t177.5 -83.5q237 0 237 333 q0 151 -59.5 280.5t-167.5 203.5zM252 436q5 -151 69 -234t174 -83q79 0 127 53t48 150t-52 152t-140 55q-116 0 -226 -93zM2389 144z"/>
    <glyph glyph-name="uni0D1F" unicode="ട" horiz-adv-x="1152" d="M41 121l95 136q210 -133 464 -133q149 0 226 50t77 140q0 96 -66 141t-264 45h-20q-239 0 -360.5 76.5t-121.5 246.5q0 158 125 248.5t354 90.5q303 0 547 -139l-95 -137q-201 128 -454 128q-144 0 -221 -51t-77 -138q0 -94 70.5 -134.5t292.5 -40.5h15q242 0 348 -84 t106 -248q0 -160 -127 -251t-364 -91q-154 0 -283 33.5t-267 111.5z"/>
    <glyph glyph-name="uni0D20" unicode="ഠ" horiz-adv-x="1342" d="M1262 566q0 -269 -160 -429.5t-432 -160.5q-181 0 -314 74t-204.5 211t-71.5 311q0 173 71 308t204.5 208.5t311.5 73.5q275 0 435 -160t160 -436zM1080 569q0 202 -108.5 323.5t-299.5 121.5t-300.5 -119t-109.5 -326q0 -205 108 -325t300 -120q193 0 301.5 120 t108.5 325z"/>
    <glyph glyph-name="uni0D21" unicode="ഡ" horiz-adv-x="2505" d="M827 586q0 161 -19.5 245.5t-80 133.5t-160.5 49q-136 0 -221.5 -115t-85.5 -305q0 -307 245 -482l-117 -129q-165 131 -236.5 277.5t-71.5 339.5q0 256 137.5 409t363.5 153q105 0 185.5 -31.5t137.5 -97.5t79.5 -161t22.5 -266v-54q0 -186 21 -264.5t75 -121.5t143 -43 q83 0 139.5 44t78 121t21.5 217v629h177v-593q0 -113 8.5 -179.5t38.5 -120.5t84 -86t131 -32q139 0 230.5 119.5t91.5 298.5q0 317 -245 491l122 130q162 -130 232.5 -279.5t70.5 -341.5q0 -163 -63.5 -293t-179.5 -201t-267 -71q-112 0 -195 44t-149 143 q-113 -187 -350 -187q-138 0 -228 66.5t-128 169.5t-38 306v68zM669 144zM669 0zM1961 990z"/>
    <glyph glyph-name="uni0D22" unicode="ഢ" horiz-adv-x="2732" d="M1661 511q0 -161 38 -237.5t112.5 -113.5t189.5 -37q182 0 308.5 110.5t161.5 307.5q-109 -75 -238 -75q-160 0 -251 91t-91 251q0 161 96.5 256.5t261.5 95.5q179 0 288.5 -129.5t109.5 -368.5q0 -208 -80 -363.5t-228 -239t-335 -83.5q-139 0 -241.5 40t-193.5 143 q-114 -183 -348 -183q-138 0 -228 66.5t-128 169.5t-38 306v68q0 161 -19.5 245.5t-80 133.5t-160.5 49q-136 0 -221.5 -115t-85.5 -305q0 -307 245 -482l-117 -129q-165 131 -236.5 277.5t-71.5 339.5q0 256 137.5 409t363.5 153q105 0 185.5 -31.5t137.5 -97.5t79.5 -161 t22.5 -266v-54q0 -186 21 -264.5t75 -121.5t143 -43q83 0 139.5 44t78 121t21.5 217v629h177v-623zM2481 701q-7 155 -71.5 236.5t-172.5 81.5q-79 0 -127 -53t-48 -150q0 -100 50 -153.5t142 -53.5q120 0 227 92zM669 144zM669 0z"/>
    <glyph glyph-name="uni0D23" unicode="ണ" horiz-adv-x="2802" d="M1162 982q65 90 153.5 135t199.5 45q121 0 209 -46t143 -138q67 94 151.5 139t208.5 45q148 0 260.5 -71.5t173.5 -201.5t61 -291q0 -192 -76.5 -339.5t-241.5 -276.5l-109 127q125 88 186 209t61 280q0 182 -89 299.5t-228 117.5q-80 0 -132 -27.5t-84 -79.5 t-41.5 -120.5t-9.5 -190.5v-597h-177v652q0 149 -28 220t-87 107t-152 36q-86 0 -145.5 -37.5t-90 -110t-30.5 -234.5v-633h-177v627q0 165 -40 240.5t-114 111.5t-186 36q-185 0 -312.5 -113t-159.5 -308q118 78 248 78q152 0 243 -89.5t91 -245.5q0 -166 -94.5 -263.5 t-255.5 -97.5q-119 0 -212.5 60.5t-143.5 178t-50 279.5q0 201 81 352.5t230.5 233.5t337.5 82q136 0 240 -42t188 -138zM252 436q5 -151 69 -234t174 -83q79 0 127 53t48 150t-52 152t-140 55q-116 0 -226 -93zM2169 144z"/>
    <glyph glyph-name="uni0D24" unicode="ത" horiz-adv-x="2077" d="M511 111l-101 -129q-157 89 -243.5 241.5t-86.5 343.5q0 176 80 312.5t224 209.5t334 73q176 0 323 -71q148 71 348 71q186 0 323.5 -72.5t211 -207t73.5 -307.5q0 -384 -330 -593l-101 129q123 75 186 187.5t63 255.5q0 135 -54.5 242.5t-156 166t-236.5 58.5 q-119 0 -192 -22q136 -99 208 -243.5t72 -307.5q0 -223 -109.5 -347.5t-307.5 -124.5q-196 0 -307 125t-111 347q0 166 73 307t214 244q-75 22 -172 22q-143 0 -250.5 -56t-165.5 -162.5t-58 -243.5q0 -296 249 -448zM1041 932q-113 -74 -176.5 -200t-63.5 -279 q0 -166 60.5 -249.5t177.5 -83.5q237 0 237 333q0 144 -63.5 273.5t-171.5 205.5zM579 144zM579 0z"/>
    <glyph glyph-name="uni0D25" unicode="ഥ" horiz-adv-x="1835" d="M695 144v481q0 148 31.5 241.5t97.5 159.5t159 101t210 35q172 0 288 -65t170 -176t54 -296v-625h-1560v1134h179v-990h371zM1528 558q0 162 -29 258t-107 147t-195 51q-115 0 -189.5 -50.5t-105 -142.5t-30.5 -247v-430h656v414z"/>
    <glyph glyph-name="uni0D26" unicode="ദ" horiz-adv-x="1310" d="M1019 567q106 -37 161.5 -109t55.5 -166q0 -148 -102 -231.5t-284 -83.5q-117 0 -222 23l37 141q91 -20 171 -20q113 0 168 43t55 131q0 59 -32 103t-89.5 68t-180.5 24h-94v144h93q281 0 281 192q0 90 -70.5 139t-203.5 49q-226 0 -349 -151t-123 -418q0 -240 51 -426 l-168 -28q-29 93 -46.5 219t-17.5 239q0 333 172 523t485 190q207 0 327 -89.5t120 -231.5q0 -98 -47.5 -164.5t-147.5 -109.5zM469 0z"/>
    <glyph glyph-name="uni0D27" unicode="ധ" horiz-adv-x="1865" d="M397 1161l110 -126q-126 -90 -186.5 -211t-60.5 -281q0 -183 89 -301t228 -118q72 0 122 22t84.5 70t47.5 111t13 214v593h177v-593q0 -118 9 -183.5t39 -118t83 -84t131 -31.5q89 0 163 52t116.5 150t42.5 218q0 314 -245 488l122 130q162 -130 232.5 -278.5 t70.5 -339.5q0 -164 -62.5 -293.5t-178.5 -202t-269 -72.5q-115 0 -198.5 45t-143.5 140q-63 -98 -149 -141.5t-209 -43.5q-148 0 -260 71.5t-173.5 202t-61.5 293.5q0 192 76 340t241 278zM661 990z"/>
    <glyph glyph-name="uni0D28" unicode="ന" horiz-adv-x="1865" d="M1468 -17l-110 126q125 88 186 209t61 280q0 181 -88.5 298.5t-228.5 117.5q-72 0 -122.5 -22.5t-85.5 -72t-47 -114.5t-12 -208v-597h-177v597q0 116 -9 182t-38.5 119t-83 84.5t-131.5 31.5q-139 0 -230.5 -118.5t-91.5 -298.5q0 -317 245 -485l-117 -129 q-162 128 -235 275.5t-73 338.5q0 166 64 295.5t180 199.5t266 70q113 0 197 -44t145 -141q61 95 147 140t211 45q148 0 260.5 -71.5t173.5 -201.5t61 -291q0 -190 -75.5 -337.5t-241.5 -277.5zM669 144z"/>
    <glyph glyph-name="uni0D29" unicode="ഩ" horiz-adv-x="2092" d="M1248 0h-177v627q0 165 -40 240.5t-114 111.5t-186 36q-185 0 -312.5 -113t-159.5 -308q118 78 248 78q152 0 243 -89.5t91 -245.5q0 -166 -94.5 -263.5t-255.5 -97.5q-119 0 -212.5 60.5t-143.5 178t-50 279.5q0 201 81 352.5t230.5 233.5t337.5 82q138 0 241 -42 t187 -138q60 92 145.5 136t209.5 44q148 0 260.5 -71.5t173.5 -201.5t61 -291q0 -190 -75.5 -337.5t-241.5 -277.5l-110 126q125 88 186 209t61 280q0 181 -88.5 298.5t-228.5 117.5q-72 0 -122.5 -22.5t-85.5 -72t-47 -114.5t-12 -208v-597zM252 436q5 -151 69 -234 t174 -83q79 0 127 53t48 150t-52 152t-140 55q-116 0 -226 -93zM1469 144z"/>
    <glyph glyph-name="uni0D2A" unicode="പ" horiz-adv-x="1835" d="M1690 0h-1018l-59 107q89 83 89 216q0 113 -60.5 177t-171.5 64q-104 0 -168 -65.5t-64 -163.5q0 -150 120 -230l-93 -119q-99 68 -149.5 158t-50.5 195q0 163 112 266t293 103q120 0 212 -45.5t142 -128.5t50 -180q0 -131 -63 -210h700v990h179v-1134zM950 1162z"/>
    <glyph glyph-name="uni0D2B" unicode="ഫ" horiz-adv-x="2312" d="M2182 0h-1510l-59 107q89 83 89 216q0 113 -60.5 177t-171.5 64q-104 0 -168 -65.5t-64 -163.5q0 -150 120 -230l-93 -119q-99 68 -149.5 158t-50.5 195q0 163 112 266t293 103q120 0 212 -45.5t142 -128.5t50 -180q0 -131 -63 -210h361v481q0 148 31.5 241.5t97.5 159.5 t159 101t210 35q172 0 288 -65t170 -176t54 -296v-625zM2005 558q0 162 -29 258t-107 147t-195 51q-115 0 -189.5 -50.5t-105 -142.5t-30.5 -247v-430h656v414z"/>
    <glyph glyph-name="uni0D2C" unicode="ബ" horiz-adv-x="2674" d="M1071 627q0 165 -40 240.5t-114 111.5t-186 36q-185 0 -312.5 -113t-159.5 -308q118 78 248 78q152 0 243 -89.5t91 -245.5q0 -166 -94.5 -263.5t-255.5 -97.5q-119 0 -212.5 60.5t-143.5 178t-50 279.5q0 201 81 352.5t230.5 233.5t337.5 82q137 0 240 -41.5t188 -138.5 q63 91 144.5 135.5t210.5 44.5q148 0 260.5 -71.5t173.5 -201.5t61 -291q0 -125 -35.5 -234t-125.5 -220h499v990h179v-1134h-848l-74 111q133 127 179 239t46 248q0 182 -89 299.5t-228 117.5q-80 0 -132 -27.5t-84 -79.5t-41.5 -120.5t-9.5 -190.5v-597h-177v627zM252 436 q5 -151 69 -234t174 -83q79 0 127 53t48 150t-52 152t-140 55q-116 0 -226 -93z"/>
    <glyph glyph-name="uni0D2D" unicode="ഭ" horiz-adv-x="1343" d="M922 639q-129 0 -169.5 -20t-40.5 -67q0 -44 40.5 -63.5t160.5 -19.5h25q179 0 257 -59.5t78 -177.5q0 -121 -95 -188.5t-267 -67.5q-101 0 -210 21.5t-180 53.5l63 140q154 -70 324 -70q196 0 196 106q0 51 -35.5 75t-135.5 24h-30q-207 0 -283 58t-76 165q0 68 33 117 t110 82t220 33h84q66 0 87.5 19.5t21.5 65.5q0 73 -75.5 110.5t-216.5 37.5q-250 0 -383.5 -149.5t-133.5 -419.5q0 -240 51 -426l-168 -28q-29 93 -46.5 219t-17.5 239q0 335 182.5 524t517.5 189q211 0 337 -78.5t126 -213.5q0 -81 -34 -133.5t-91.5 -75t-166.5 -22.5h-59 zM439 0z"/>
    <glyph glyph-name="uni0D2E" unicode="മ" horiz-adv-x="1485" d="M1360 0h-1235v549q0 202 62.5 331t196 205.5t343.5 76.5q193 0 334 -62.5t220 -191.5t79 -363v-545zM302 139h10q229 172 354.5 350.5t125.5 333.5q0 91 -41.5 141.5t-120.5 50.5q-140 0 -234 -123t-94 -383v-370zM1183 509q0 248 -76 355t-208 141q38 -47 53.5 -94.5 t15.5 -106.5q0 -156 -97.5 -316t-307.5 -350q89 6 176 6h444v365z"/>
    <glyph glyph-name="uni0D2F" unicode="യ" horiz-adv-x="2120" d="M802 1067q59 47 127.5 71t146.5 24q198 0 314 -130t116 -353q0 -168 -70 -313.5t-198 -240.5q56 -10 115 -10q236 0 369.5 143t133.5 381q0 116 -38 226.5t-112 199.5l142 97q92 -108 139.5 -241.5t47.5 -277.5q0 -199 -82.5 -352t-237.5 -234t-361 -81q-159 0 -285 54 q-132 -54 -299 -54q-206 0 -362 86.5t-242 249.5t-86 374q0 216 121.5 346t322.5 130q165 0 278 -95zM1066 175q120 69 190 204t70 300q0 163 -67.5 251t-182.5 88q-119 0 -189 -90t-70 -249q0 -156 66.5 -293.5t182.5 -210.5zM700 944q-68 74 -173 74q-124 0 -196 -89.5 t-72 -247.5q0 -156 63.5 -287t183 -205t278.5 -74q69 0 119 9q-133 105 -199 247t-66 321q0 141 62 252zM1561 1134zM1561 990z"/>
    <glyph glyph-name="uni0D30" unicode="ര" horiz-adv-x="1507" d="M1225 732q-50 133 -176.5 207.5t-302.5 74.5q-226 0 -355 -121t-129 -334q0 -296 249 -448l-101 -129q-157 89 -243.5 241.5t-86.5 343.5q0 169 77.5 306.5t228.5 213t359 75.5q209 0 362.5 -78.5t236.5 -231t83 -357.5q0 -252 -114.5 -385.5t-319.5 -133.5 q-182 0 -290 120t-108 306q0 193 105 309t280 116q138 0 245 -95zM1254 561q-47 60 -108.5 91.5t-130.5 31.5q-120 0 -183.5 -72.5t-63.5 -205.5q0 -140 57.5 -213t167.5 -73q134 0 199 96.5t65 291.5q0 16 -3 53zM569 144zM569 0z"/>
    <glyph glyph-name="uni0D31" unicode="റ" horiz-adv-x="1381" d="M870 111q120 73 184.5 187t64.5 256q0 209 -114.5 334.5t-312.5 125.5q-129 0 -227 -58t-150.5 -163t-52.5 -234q0 -148 62 -260t187 -188l-101 -128q-157 88 -243.5 240.5t-86.5 343.5q0 174 76.5 311.5t216.5 210.5t325 73t321.5 -72t209 -207t72.5 -308 q0 -192 -82.5 -340.5t-247.5 -252.5zM669 144zM669 0z"/>
    <glyph glyph-name="uni0D32" unicode="ല" horiz-adv-x="1759" d="M307 454v-310h1130v990h177v-1134h-1484v641q0 193 59 301.5t168.5 164t266.5 55.5q246 0 369 -126t123 -377v-205h-809zM307 598h632v57q0 192 -74.5 277.5t-242.5 85.5q-166 0 -240.5 -86t-74.5 -274v-60z"/>
    <glyph glyph-name="uni0D33" unicode="ള" horiz-adv-x="1466" d="M270 794q97 58 200 58q143 0 224 -82.5t81 -216.5q0 -140 -91.5 -228.5t-252.5 -88.5t-255.5 106t-94.5 295q0 146 86 267t247.5 189.5t376.5 68.5q274 0 426 -89.5t152 -248.5q0 -88 -47 -152.5t-140 -104.5q105 -34 157.5 -100t52.5 -165q0 -61 -25 -122t-79.5 -103.5 t-122 -59.5t-173.5 -17h-457q-116 0 -164 -14t-70.5 -42.5t-22.5 -69.5q0 -72 54 -105t198 -33h825v-148h-832q-219 0 -320.5 74t-101.5 198q0 79 32.5 141t115 102.5t238.5 40.5h456q101 0 153.5 13t85.5 49.5t33 108.5q0 81 -64 128t-181 47h-62v144h13q84 0 129 11.5 t78 36.5t48.5 58t15.5 76q0 95 -106.5 148.5t-303.5 53.5q-182 0 -314 -57t-198 -167zM235 620q2 -122 50.5 -183t143.5 -61q83 0 129.5 48.5t46.5 127.5q0 78 -43.5 121.5t-123.5 43.5q-111 0 -203 -97zM722 -690z"/>
    <glyph glyph-name="uni0D34" unicode="ഴ" horiz-adv-x="1340" d="M884 328q7 -40 7 -77q0 -129 -84.5 -202t-248.5 -73q-186 0 -329 80l64 136q125 -70 261 -70q83 0 125 30.5t42 105.5q0 22 -3 50h-42q-286 0 -443.5 137.5t-157.5 376.5q0 174 111 340l137 -76q-37 -66 -54 -123.5t-17 -126.5q0 -185 107 -284.5t312 -102.5 q-20 42 -43 83q-43 76 -66 146.5t-23 149.5q0 149 97.5 241.5t266.5 92.5q171 0 266.5 -102.5t95.5 -257.5q0 -169 -102 -299t-279 -175zM836 464q118 34 185 128t67 222q0 96 -48.5 151t-140.5 55q-89 0 -138.5 -52t-49.5 -143q0 -71 22 -138.5t61 -139.5q22 -41 42 -83z M431 1134zM429 991z"/>
    <glyph glyph-name="uni0D35" unicode="വ" horiz-adv-x="1963" d="M887 121q116 79 174 187.5t58 245.5q0 210 -115 335t-314 125q-127 0 -225 -57.5t-150.5 -163t-52.5 -234.5q0 -148 62 -260t187 -188l-101 -129q-157 89 -243.5 241.5t-86.5 343.5q0 174 76.5 311.5t216.5 210.5t325 73t321.5 -72t209 -207t72.5 -308q0 -121 -38 -224.5 t-125 -206.5h501v991h179v-1135h-861z"/>
    <glyph glyph-name="uni0D36" unicode="ശ" horiz-adv-x="2130" d="M1852 728q-49 130 -169 208t-271 78q-203 0 -303.5 -107.5t-100.5 -367.5v-35q0 -152 -25.5 -242.5t-84 -156t-138.5 -97t-191 -31.5q-227 0 -358 149.5t-131 411.5q0 197 76.5 346t240.5 278l110 -127q-247 -177 -247 -492q0 -189 83.5 -303.5t217.5 -114.5 q141 0 204 82.5t63 335.5v30q0 196 58 318t186 196.5t329 74.5q198 0 345 -81t225.5 -233t78.5 -353q0 -253 -113.5 -386t-320.5 -133q-182 0 -290 120t-108 306q0 193 105 309t280 116q140 0 249 -99zM1877 561q-47 60 -108.5 91.5t-130.5 31.5q-120 0 -183.5 -72.5 t-63.5 -205.5q0 -140 57.5 -213t167.5 -73q134 0 199 96.5t65 291.5q0 16 -3 53zM661 1134zM661 990z"/>
    <glyph glyph-name="uni0D37" unicode="ഷ" horiz-adv-x="2354" d="M1525 636q148 33 271.5 150t238.5 348h174v-1134h-1537l-59 107q89 83 89 216q0 113 -60.5 177t-171.5 64q-104 0 -168 -65.5t-64 -163.5q0 -150 120 -230l-93 -119q-99 68 -149.5 158t-50.5 195q0 163 112 266t293 103q120 0 212 -45.5t142 -128.5t50 -180 q0 -131 -63 -210h537v337q-223 4 -343 106t-120 266q0 128 88.5 218.5t234.5 90.5q113 0 185 -45t102 -119t30 -208v-154zM1348 622v158q0 89 -12 137t-48 74.5t-88 26.5q-64 0 -101 -42.5t-37 -119.5q0 -113 72.5 -173.5t213.5 -60.5zM2039 888q-72 -162 -208.5 -268 t-305.5 -131v-345h507v619q0 77 7 125z"/>
    <glyph glyph-name="uni0D38" unicode="സ" horiz-adv-x="2505" d="M1678 552q0 -160 19.5 -245.5t79.5 -134t160 -48.5q138 0 223 113.5t85 306.5q0 153 -62.5 278t-182.5 210l122 130q162 -130 232.5 -278t70.5 -340q0 -262 -136 -415t-365 -153q-106 0 -189 33t-138.5 100.5t-76.5 162.5t-21 260v73q0 174 -22.5 251.5t-76 118 t-140.5 40.5q-83 0 -140 -44.5t-78 -122.5t-21 -215v-633h-177v597q0 155 -20 234.5t-82.5 131.5t-159.5 52q-89 0 -162.5 -52t-116.5 -149.5t-43 -216.5q0 -315 245 -485l-117 -130q-162 128 -235 275.5t-73 339.5q0 162 63 292t179 201.5t268 71.5q111 0 194 -43t150 -144 q113 187 350 187q125 0 212 -55.5t134.5 -158.5t47.5 -328v-68zM1861 1134zM1861 990zM669 144z"/>
    <glyph glyph-name="uni0D39" unicode="ഹ" horiz-adv-x="2437" d="M1926 111q120 73 184.5 187t64.5 256q0 209 -114.5 334.5t-312.5 125.5q-129 0 -227 -58t-150.5 -163t-52.5 -234q0 -146 57 -252.5t175 -186.5l-77 -120h-801l-59 107q89 83 89 216q0 113 -60.5 177t-171.5 64q-104 0 -168 -65.5t-64 -163.5q0 -150 120 -230l-93 -119 q-99 68 -149.5 158t-50.5 195q0 163 112 266t293 103q120 0 212 -45.5t142 -128.5t50 -180q0 -131 -63 -210h487q-162 186 -162 431q0 170 77 306t217 208.5t324 72.5q185 0 321.5 -72t209 -207t72.5 -308q0 -192 -82.5 -340.5t-247.5 -252.5z"/>
    <glyph glyph-name="uni0D3A" unicode="ഺ" horiz-adv-x="1584" d="M795 0h-662l-89 100l395 1044l164 -50l-362 -950h1308v-144h-575v-413h-179v413zM939 1135zM939 991z"/>
    <glyph glyph-name="uni0D3D" unicode="ഽ" horiz-adv-x="954" d="M568 10q0 -267 -97 -388.5t-292 -121.5q-136 0 -227.5 76.5t-130.5 224.5l179 33q27 -99 70 -144.5t112 -45.5q70 0 115 35.5t67 103.5t22 216v1085q0 151 16 237.5t63 154.5t123.5 107.5t186.5 39.5q135 0 227 -76.5t131 -224.5l-179 -33q-30 105 -73 147.5t-109 42.5 q-73 0 -119.5 -39t-65.5 -113t-19 -232v-1085zM322 -690zM730 1726zM286 0zM775 1135z"/>
    <glyph glyph-name="uni0D3E" unicode="ാ" horiz-adv-x="1033" d="M34 347l178 33q65 -260 260 -260q146 0 221 115t75 334q0 216 -73.5 332.5t-212.5 116.5q-97 0 -165 -70t-97 -190l-177 34q53 182 168 276t282 94q221 0 338 -157.5t117 -433.5q0 -289 -121 -442t-354 -153q-169 0 -283.5 98.5t-155.5 272.5z"/>
    <glyph glyph-name="uni0D3F" unicode="ി" horiz-adv-x="467" d="M-420 1282q-12 55 -12 98q0 159 101 253t261 94q153 0 242 -70t119.5 -176.5t30.5 -318.5v-1162h-177v1111q0 194 -18 287.5t-65.5 139t-126.5 45.5q-83 0 -136.5 -51.5t-53.5 -143.5q0 -37 8 -75zM-39 1134z"/>
    <glyph glyph-name="uni0D40" unicode="ീ" horiz-adv-x="467" d="M322 0h-177v1076q0 153 -13.5 245t-58.5 156.5t-117 91.5q30 -46 30 -123q0 -124 -75 -193t-217 -69q-120 0 -201 73t-81 193q0 123 99 199.5t265 76.5q190 0 312.5 -62.5t178 -183.5t55.5 -370v-1110zM-211 1596h-14q-88 3 -145.5 -38t-57.5 -112q0 -57 34.5 -91 t96.5 -34q67 0 103.5 37.5t36.5 98.5q0 80 -54 139zM-39 1134z"/>
    <glyph glyph-name="uni0D41" unicode="ു" horiz-adv-x="765" d="M341 243q55 195 78 326.5t23 239.5q0 104 -40.5 154.5t-122.5 50.5q-61 0 -123 -16l-35 141q83 23 178 23q159 0 241 -88.5t82 -253.5q0 -112 -27.5 -258.5t-82.5 -327.5q124 -31 192.5 -122.5t68.5 -220.5q0 -160 -102.5 -258.5t-267.5 -98.5q-168 0 -269 98t-101 259 q0 139 82.5 235t225.5 117zM201 -111q0 -101 55.5 -160t146.5 -59q90 0 146 58.5t56 162.5q0 102 -54.5 161t-148.5 59q-91 0 -146 -58.5t-55 -163.5z"/>
    <glyph glyph-name="uni0D42" unicode="ൂ" horiz-adv-x="773" d="M341 243q55 195 78 326.5t23 239.5q0 104 -40.5 154.5t-122.5 50.5q-61 0 -123 -16l-35 141q83 23 178 23q159 0 241 -88.5t82 -253.5q0 -112 -27.5 -258.5t-82.5 -327.5q124 -31 192.5 -122.5t68.5 -220.5q0 -160 -103 -258.5t-268 -98.5q-168 0 -268.5 98.5 t-100.5 258.5q0 140 83 236.5t225 115.5zM285 92q-14 -25 -14 -50q0 -49 34 -76.5t98 -27.5q58 0 93 28.5t35 75.5q0 28 -20 53q-49 21 -111 21q-64 0 -115 -24zM176 -37q-9 -33 -9 -74q0 -103 65.5 -163.5t168.5 -60.5q104 0 169 61t65 165q0 37 -8 69q-21 -78 -78.5 -119 t-147.5 -41q-89 0 -147.5 41.5t-77.5 121.5z"/>
    <glyph glyph-name="uni0D43" unicode="ൃ" horiz-adv-x="497" d="M303 -134q-12 63 -33.5 126t-72.5 189q-67 164 -86 258t-19 175q0 119 39 255.5t113 264.5h187q-82 -137 -120.5 -256t-38.5 -254q0 -81 17 -166.5t80 -240.5q75 -186 96 -285t21 -182q0 -189 -117.5 -293t-304.5 -104q-159 0 -259 82t-100 219q0 130 93.5 208t245.5 78 q142 0 259 -74zM313 -296q-117 93 -258 93q-84 0 -131.5 -39.5t-47.5 -111.5t49.5 -111t140.5 -39q108 0 172 53t75 155zM122 -690zM100 0z"/>
    <glyph glyph-name="uni0D44" unicode="ൄ" horiz-adv-x="497" d="M-124 -166q30 49 71.5 70.5t101.5 21.5q104 0 157.5 -62t53.5 -173v-51h-140v21q0 78 -21.5 105t-64.5 27q-31 0 -51.5 -13.5t-29.5 -38.5t-9 -77v-24h-140v22q0 74 -21 102.5t-68 28.5q-45 0 -70.5 -29.5t-25.5 -83.5q0 -92 83 -138t261 -46q167 0 256 63.5t89 182.5 q0 65 -10 123t-29.5 118t-73.5 203q-42 108 -61.5 169.5t-30.5 126t-11 132.5q0 119 39 255.5t113 264.5h187q-82 -137 -120.5 -256t-38.5 -254q0 -71 16 -157t82 -250q66 -162 91 -267t25 -200q0 -190 -142.5 -293.5t-381.5 -103.5q-247 0 -375 85.5t-128 246.5 q0 106 67 173.5t176 67.5q120 0 174 -92zM122 -690zM100 0z"/>
    <glyph glyph-name="uni0D46" unicode="െ" horiz-adv-x="1465" d="M954 111q120 73 184.5 187t64.5 256q0 212 -120.5 336t-325.5 124q-184 0 -320.5 -113t-176.5 -303q115 74 242 74q152 0 243 -89.5t91 -245.5q0 -166 -94.5 -263.5t-255.5 -97.5q-118 0 -212 60.5t-144 174t-50 265.5q0 203 87 359t245 241.5t354 85.5 q292 0 455.5 -159.5t163.5 -427.5q0 -192 -82.5 -340.5t-247.5 -252.5zM247 437q5 -154 69 -236t175 -82q79 0 126.5 54.5t47.5 149.5q0 96 -52.5 151t-139.5 55q-117 0 -226 -92zM889 144zM889 0z"/>
    <glyph glyph-name="uni0D47" unicode="േ" horiz-adv-x="1219" d="M601 1015q-163 -37 -251 -151.5t-88 -289.5q0 -168 86 -288.5t239 -158.5q-31 59 -31 132q0 121 74.5 192.5t213.5 71.5q125 0 206.5 -72.5t81.5 -194.5q0 -130 -101 -205t-286 -75q-194 0 -347.5 72t-235.5 207t-82 321q0 177 83 309t238.5 204.5t348.5 72.5 q189 0 291.5 -75t102.5 -205q0 -121 -80.5 -194t-201.5 -73q-143 0 -218.5 71.5t-75.5 198.5q0 67 33 130zM765 1032q-52 -58 -52 -141q0 -59 37 -100.5t103 -41.5q63 0 97 35.5t34 93.5q0 73 -53 113.5t-135 40.5h-31zM752 107l13 -1q91 -3 149 37t58 117q0 58 -34 93.5 t-97 35.5q-66 0 -103 -41.5t-37 -100.5q0 -82 51 -140z"/>
    <glyph glyph-name="uni0D48" unicode="ൈ" horiz-adv-x="2935" d="M2424 111q120 73 184.5 187t64.5 256q0 212 -120.5 336t-325.5 124q-184 0 -320.5 -113t-176.5 -303q115 74 242 74q152 0 243 -89.5t91 -245.5q0 -166 -94.5 -263.5t-255.5 -97.5q-118 0 -212 60.5t-144 174t-50 265.5q0 203 87 359t245 241.5t354 85.5 q292 0 455.5 -159.5t163.5 -427.5q0 -192 -82.5 -340.5t-247.5 -252.5zM1717 437q5 -154 69 -236t175 -82q79 0 126.5 54.5t47.5 149.5q0 96 -52.5 151t-139.5 55q-117 0 -226 -92zM2359 144zM2359 0zM954 111q120 73 184.5 187t64.5 256q0 212 -120.5 336t-325.5 124 q-184 0 -320.5 -113t-176.5 -303q115 74 242 74q152 0 243 -89.5t91 -245.5q0 -166 -94.5 -263.5t-255.5 -97.5q-118 0 -212 60.5t-144 174t-50 265.5q0 203 87 359t245 241.5t354 85.5q292 0 455.5 -159.5t163.5 -427.5q0 -192 -82.5 -340.5t-247.5 -252.5zM247 437 q5 -154 69 -236t175 -82q79 0 126.5 54.5t47.5 149.5q0 96 -52.5 151t-139.5 55q-117 0 -226 -92zM889 144zM889 0z"/>
    <glyph glyph-name="uni0D4A" unicode="ൊ" horiz-adv-x="2923" d="M954 111q120 73 184.5 187t64.5 256q0 212 -120.5 336t-325.5 124q-184 0 -320.5 -113t-176.5 -303q115 74 242 74q152 0 243 -89.5t91 -245.5q0 -166 -94.5 -263.5t-255.5 -97.5q-118 0 -212 60.5t-144 174t-50 265.5q0 203 87 359t245 241.5t354 85.5 q292 0 455.5 -159.5t163.5 -427.5q0 -192 -82.5 -340.5t-247.5 -252.5zM247 437q5 -154 69 -236t175 -82q79 0 126.5 54.5t47.5 149.5q0 96 -52.5 151t-139.5 55q-117 0 -226 -92zM889 144zM889 0zM1557 611q0 38 10 64.5t27 43t40 24t50 7.5q26 0 49.5 -7.5t40.5 -24 t27 -43t10 -64.5q0 -37 -10 -63.5t-27 -43.5t-40.5 -25t-49.5 -8q-27 0 -50 8t-40 25t-27 43.5t-10 63.5zM1924 347l178 33q65 -260 260 -260q146 0 221 115t75 334q0 216 -73.5 332.5t-212.5 116.5q-97 0 -165 -70t-97 -190l-177 34q53 182 168 276t282 94 q221 0 338 -157.5t117 -433.5q0 -289 -121 -442t-354 -153q-169 0 -283.5 98.5t-155.5 272.5z"/>
    <glyph glyph-name="uni0D4B" unicode="ോ" horiz-adv-x="2647" d="M601 1015q-163 -37 -251 -151.5t-88 -289.5q0 -168 86 -288.5t239 -158.5q-31 59 -31 132q0 121 74.5 192.5t213.5 71.5q125 0 206.5 -72.5t81.5 -194.5q0 -130 -101 -205t-286 -75q-194 0 -347.5 72t-235.5 207t-82 321q0 177 83 309t238.5 204.5t348.5 72.5 q189 0 291.5 -75t102.5 -205q0 -121 -80.5 -194t-201.5 -73q-143 0 -218.5 71.5t-75.5 198.5q0 67 33 130zM765 1032q-52 -58 -52 -141q0 -59 37 -100.5t103 -41.5q63 0 97 35.5t34 93.5q0 73 -53 113.5t-135 40.5h-31zM752 107l13 -1q91 -3 149 37t58 117q0 58 -34 93.5 t-97 35.5q-66 0 -103 -41.5t-37 -100.5q0 -82 51 -140zM1281 611q0 38 10 64.5t27 43t40 24t50 7.5q26 0 49.5 -7.5t40.5 -24t27 -43t10 -64.5q0 -37 -10 -63.5t-27 -43.5t-40.5 -25t-49.5 -8q-27 0 -50 8t-40 25t-27 43.5t-10 63.5zM1648 347l178 33q65 -260 260 -260 q146 0 221 115t75 334q0 216 -73.5 332.5t-212.5 116.5q-97 0 -165 -70t-97 -190l-177 34q53 182 168 276t282 94q221 0 338 -157.5t117 -433.5q0 -289 -121 -442t-354 -153q-169 0 -283.5 98.5t-155.5 272.5z"/>
    <glyph glyph-name="uni0D4C" unicode="ൌ" horiz-adv-x="3449" d="M954 111q120 73 184.5 187t64.5 256q0 212 -120.5 336t-325.5 124q-184 0 -320.5 -113t-176.5 -303q115 74 242 74q152 0 243 -89.5t91 -245.5q0 -166 -94.5 -263.5t-255.5 -97.5q-118 0 -212 60.5t-144 174t-50 265.5q0 203 87 359t245 241.5t354 85.5 q292 0 455.5 -159.5t163.5 -427.5q0 -192 -82.5 -340.5t-247.5 -252.5zM247 437q5 -154 69 -236t175 -82q79 0 126.5 54.5t47.5 149.5q0 96 -52.5 151t-139.5 55q-117 0 -226 -92zM889 144zM889 0zM1557 611q0 38 10 64.5t27 43t40 24t50 7.5q26 0 49.5 -7.5t40.5 -24 t27 -43t10 -64.5q0 -37 -10 -63.5t-27 -43.5t-40.5 -25t-49.5 -8q-27 0 -50 8t-40 25t-27 43.5t-10 63.5zM2009 521q-20 56 -31 125.5t-11 128.5q0 172 104 279.5t286 107.5q185 0 290 -156q56 82 130 119t172 37q193 0 306.5 -146t113.5 -392q0 -312 -146 -480t-413 -168 q-136 0 -241.5 24t-216.5 81l89 141q84 -51 169 -74.5t190 -23.5q193 0 291 123t98 378q0 187 -63 288t-176 101q-67 0 -109 -22.5t-65.5 -60.5t-30.5 -90.5t-7 -143.5v-169h-174v154q0 132 -19 195t-67.5 100.5t-117.5 37.5q-101 0 -158.5 -69t-57.5 -184q0 -111 30 -208z "/>
    <glyph glyph-name="uni0D4D" unicode="്" horiz-adv-x="0" d="M-578 1675l152 -28q-12 -45 -12 -100q0 -98 54 -147.5t157 -49.5t157 49.5t54 147.5q0 55 -12 100l152 28q20 -71 20 -135q0 -152 -99 -240.5t-272 -88.5t-272 88.5t-99 240.5q0 71 20 135zM-240 1727zM-209 1134z"/>
    <glyph glyph-name="uni0D4E" unicode="ൎ" horiz-adv-x="0" d="M987 1657l-19 -373h-172l-19 373h210zM890 1727zM921 1134z"/>
    <glyph glyph-name="uni0D57" unicode="ൗ" horiz-adv-x="1555" d="M115 521q-20 56 -31 125.5t-11 128.5q0 172 104 279.5t286 107.5q185 0 290 -156q56 82 130 119t172 37q193 0 306.5 -146t113.5 -392q0 -312 -146 -480t-413 -168q-136 0 -241.5 24t-216.5 81l89 141q84 -51 169 -74.5t190 -23.5q193 0 291 123t98 378q0 187 -63 288 t-176 101q-67 0 -109 -22.5t-65.5 -60.5t-30.5 -90.5t-7 -143.5v-169h-174v154q0 132 -19 195t-67.5 100.5t-117.5 37.5q-101 0 -158.5 -69t-57.5 -184q0 -111 30 -208z"/>
    <glyph glyph-name="uni0D60" unicode="ൠ" horiz-adv-x="1784" d="M403 229q-143 55 -235.5 189.5t-92.5 316.5q0 197 103 312t281 115q163 0 256.5 -94.5t93.5 -242.5q0 -138 -86 -225t-236 -87q-140 0 -239 71q40 -92 114.5 -155t187 -86t310.5 -23h50q194 0 311.5 21t194 79.5t120.5 163.5q-102 -71 -239 -71q-153 0 -237.5 88.5 t-84.5 228.5q0 146 98 239t267 93q170 0 269.5 -113.5t99.5 -306.5t-95 -327.5t-243 -182.5q135 -41 202.5 -113t67.5 -176q0 -196 -183 -287.5t-558 -91.5q-397 0 -577 91t-180 294q0 98 65 168t195 112zM1549 748q-5 136 -60 204t-154 68q-92 0 -143.5 -51.5t-51.5 -137.5 q0 -81 47.5 -127t135.5 -46q137 0 226 90zM234 755q47 -51 102 -74t125 -23q88 0 135.5 46t47.5 127q0 84 -50 136.5t-136 52.5q-105 0 -163 -69t-61 -196zM894 180h-16q-290 0 -423 -57.5t-133 -177.5q0 -133 137 -187t439 -54q291 0 427.5 56.5t136.5 181.5 q0 121 -128 179.5t-440 58.5zM822 -191v26q0 72 -24 99.5t-66 27.5q-44 0 -65 -27.5t-21 -103.5v-22h-140v51q0 111 53.5 173t157.5 62q61 0 103 -22t72 -70q30 48 72 70t103 22q104 0 157.5 -62t53.5 -173v-51h-140v20q0 74 -19 103.5t-67 29.5q-44 0 -67 -27.5t-23 -98.5 v-27h-140zM822 -690z"/>
    <glyph glyph-name="uni0D61" unicode="ൡ" horiz-adv-x="2704" d="M2038 780q-58 117 -162.5 175.5t-256.5 58.5q-112 0 -201.5 -46t-129.5 -131.5t-40 -246.5v-590h-177v627q0 165 -40 240.5t-114 111.5t-186 36q-185 0 -312.5 -113t-159.5 -308q118 78 248 78q152 0 243 -89.5t91 -245.5q0 -166 -94.5 -263.5t-255.5 -97.5 q-119 0 -212.5 60.5t-143.5 178t-50 279.5q0 201 81 352.5t230.5 233.5t337.5 82q139 0 245 -43.5t192 -147.5q82 95 193.5 143t253.5 48q227 0 384 -106t225 -305q198 -58 308 -209t110 -356q0 -283 -168 -440.5t-473 -157.5q-183 0 -343 60l57 143q122 -53 291 -53 q227 0 344 116.5t117 333.5q0 136 -51.5 234t-153.5 157q7 -59 7 -121q0 -233 -114 -357.5t-322 -124.5q-118 0 -205 48.5t-133 136.5t-46 190q0 204 139.5 317t397.5 113q25 0 49 -1zM2086 633q-41 7 -91 7q-184 0 -275.5 -72.5t-91.5 -216.5q0 -103 56 -168t159 -65 q126 0 192.5 88.5t66.5 254.5q0 92 -16 172zM252 436q5 -151 69 -234t174 -83q79 0 127 53t48 150t-52 152t-140 55q-116 0 -226 -93zM1322 -690z"/>
    <glyph glyph-name="uni0D62" unicode="ൢ" horiz-adv-x="0" d="M-799 -680h-150v334q0 95 -22.5 148t-77 83.5t-143.5 30.5q-87 0 -168.5 -39t-120.5 -103q76 38 148 38q117 0 184 -68.5t67 -181.5q0 -116 -75 -184t-208 -68q-134 0 -212 90t-78 247q0 112 60 202t168.5 140t241.5 50q95 0 170.5 -28t155.5 -101q50 63 130 94t190 31 q215 0 342.5 -110t127.5 -294q0 -155 -83 -238t-226 -83q-130 0 -207 74.5t-77 186.5q0 119 72 190.5t193 71.5q88 0 153 -49q-42 62 -118 97t-175 35q-98 0 -157 -33.5t-82 -93t-23 -164.5v-305zM-212 -355q-59 66 -146 66q-76 0 -117.5 -35.5t-41.5 -101.5q0 -70 36 -106 t105 -36q84 0 124 51.5t40 158.5v3zM-1516 -366v-4q0 -96 40.5 -147.5t113.5 -51.5q135 0 135 132q0 59 -35.5 93t-95.5 34q-81 0 -158 -56zM-1555 0zM-1474 1134z"/>
    <glyph glyph-name="uni0D63" unicode="ൣ" horiz-adv-x="0" d="M-292 -166q-79 82 -245 82q-98 0 -157 -33.5t-82 -93t-23 -164.5v-305h-150v334q0 95 -22.5 148t-77 83.5t-143.5 30.5q-87 0 -168.5 -39t-120.5 -103q76 38 148 38q117 0 184 -68.5t67 -181.5q0 -116 -75 -184t-208 -68q-134 0 -212 90t-78 247q0 112 60 202t168.5 140 t241.5 50q95 0 170.5 -28t155.5 -101q50 63 130 94t190 31q157 0 264 -57t156 -164q139 -44 211 -138t72 -233q0 -61 -18 -126t-49 -101l-132 61q22 30 35.5 77t13.5 93q0 142 -95 218q2 -24 2 -48q0 -147 -78 -227t-216 -80q-139 0 -214 64t-75 183q0 131 96.5 204 t273.5 73zM-230 -288q-21 2 -53 2q-112 0 -173 -43.5t-61 -120.5q0 -56 34.5 -87t100.5 -31q160 0 160 200q0 43 -8 80zM-1516 -366v-4q0 -96 40.5 -147.5t113.5 -51.5q135 0 135 132q0 59 -35.5 93t-95.5 34q-81 0 -158 -56zM-1555 0zM-1474 1134z"/>
    <glyph glyph-name="uni0D66" unicode="൦" horiz-adv-x="1179" d="M80 579q0 143 64.5 254.5t180.5 172.5t263 61q229 0 370 -133.5t141 -354.5q0 -145 -64 -257t-181 -172.5t-265 -60.5q-231 0 -370 134.5t-139 355.5zM260 576q0 -159 91 -249.5t238 -90.5q150 0 240 91t90 252t-89 251t-242 90q-150 0 -239 -90t-89 -254zM590 1134z M590 0z"/>
    <glyph glyph-name="uni0D67" unicode="൧" horiz-adv-x="1835" d="M1705 0h-1248q-116 0 -164 -14t-70.5 -42.5t-22.5 -69.5q0 -72 54 -105t198 -33h348v-148h-355q-220 0 -321 74t-101 198q0 79 32.5 141t115 102.5t238.5 40.5h286v481q0 148 31.5 241.5t97.5 159.5t159 101t210 35q172 0 288 -65t170 -176t54 -296v-625zM1528 558 q0 162 -29 258t-107 147t-195 51q-115 0 -189.5 -50.5t-105 -142.5t-30.5 -247v-430h656v414zM822 -690z"/>
    <glyph glyph-name="uni0D68" unicode="൨" horiz-adv-x="1759" d="M891 111q130 114 179 217t49 226q0 210 -115 335t-314 125q-127 0 -225 -57.5t-150.5 -163t-52.5 -234.5q0 -148 62 -260t187 -188l-101 -129q-157 89 -243.5 241.5t-86.5 343.5q0 174 76.5 311.5t216.5 210.5t325 73t321.5 -72t209 -207t72.5 -308q0 -121 -38 -224.5 t-125 -206.5h586v-144h-760z"/>
    <glyph glyph-name="uni0D69" unicode="൩" horiz-adv-x="2219" d="M931 979q68 96 152.5 139.5t206.5 43.5q148 0 260.5 -71.5t173.5 -201.5t61 -291q0 -125 -35.5 -234t-125.5 -220h560v-144h-730l-74 111q133 127 179 239t46 248q0 182 -89 299.5t-228 117.5q-80 0 -132 -27.5t-84 -79.5t-41.5 -120.5t-9.5 -190.5v-597h-177v597 q0 116 -9 182t-38.5 119t-83 84.5t-131.5 31.5q-139 0 -230.5 -118.5t-91.5 -298.5q0 -159 63 -283.5t182 -201.5l-117 -129q-162 128 -235 275.5t-73 338.5q0 166 64 295.5t180 199.5t266 70q113 0 197 -44.5t144 -138.5z"/>
    <glyph glyph-name="uni0D6A" unicode="൪" horiz-adv-x="1632" d="M1557 1495q65 -92 65 -212q0 -106 -71.5 -185.5t-265.5 -181.5q81 -96 121.5 -210t40.5 -245q0 -231 -115.5 -358t-327.5 -127q-192 0 -303.5 109.5t-111.5 289.5q0 169 98 300.5t336 266.5q-61 37 -131.5 55.5t-150.5 18.5q-224 0 -351.5 -125.5t-127.5 -331.5 q0 -148 62 -260t187 -188l-101 -129q-157 89 -243.5 241.5t-86.5 343.5q0 177 81 313.5t229 209t347 72.5q126 0 234.5 -35t199.5 -104q163 86 217 136t54 113q0 69 -51 146zM1141 838q-203 -119 -287.5 -223t-84.5 -240q0 -124 63 -189.5t175 -65.5q258 0 258 341 q0 105 -32 204t-92 173zM822 1726zM582 0zM579 144z"/>
    <glyph glyph-name="uni0D6B" unicode="൫" horiz-adv-x="1989" d="M1754 -24l-158 84q121 200 121 490q0 236 -82.5 413.5t-242 271.5t-383.5 94q-226 0 -392.5 -97.5t-255.5 -280.5t-89 -432q0 -219 69 -387t201.5 -256.5t320.5 -88.5q207 0 318 88.5t111 249.5q0 141 -88 228t-242 87h-26v144h53q147 0 214 49.5t67 142.5 q0 90 -61.5 139t-180.5 49q-169 0 -258 -106.5t-89 -299.5q0 -282 175 -477l-151 -98q-203 272 -203 573q0 258 140.5 407t386.5 149q198 0 308 -87.5t110 -233.5q0 -102 -52.5 -169.5t-164.5 -117.5q239 -115 239 -374q0 -236 -160 -365.5t-446 -129.5q-234 0 -409.5 106.5 t-269.5 306.5t-94 470q0 299 114 516.5t326 331.5t485 114q280 0 478.5 -109t302 -320.5t103.5 -504.5q0 -322 -145 -570zM1030 1727zM1030 0zM1030 144zM1022 -690z"/>
    <glyph glyph-name="uni0D6C" unicode="൬" horiz-adv-x="2505" d="M1581 977q62 95 142.5 140t204.5 45q235 0 361 -177t126 -515q0 -448 -183 -665t-556 -217q-143 0 -247 21l20 147q82 -18 222 -18q284 0 423 173.5t139 552.5q0 268 -81 409t-227 141q-65 0 -111.5 -20t-80.5 -65.5t-48 -110t-14 -221.5v-597h-177v652q0 146 -25.5 217 t-81 108.5t-145.5 37.5q-78 0 -134 -35.5t-86.5 -108t-30.5 -238.5v-633h-177v597q0 148 -13.5 213.5t-47.5 112.5t-81 69.5t-107 22.5q-85 0 -155.5 -53.5t-110 -150.5t-39.5 -214q0 -315 245 -485l-117 -130q-162 128 -235 275.5t-73 339.5q0 161 60.5 291.5t172 202 t257.5 71.5q108 0 188 -44t143 -142q58 92 145 139t196 47q117 0 201.5 -46.5t137.5 -138.5zM1022 -690zM630 144z"/>
    <glyph glyph-name="uni0D6D" unicode="൭" horiz-adv-x="1522" d="M407 -391l20 147q83 -18 226 -18q297 0 447 175t150 519q0 275 -129 428.5t-360 153.5q-187 0 -326 -114t-177 -303q116 75 244 75q152 0 243 -89.5t91 -245.5q0 -166 -94.5 -263.5t-255.5 -97.5q-180 0 -293 134t-113 374q0 197 85.5 351.5t244 240.5t356.5 86 q321 0 493.5 -194t172.5 -541q0 -401 -200 -620t-574 -219q-145 0 -251 21zM247 437q8 -153 73 -235.5t170 -82.5q78 0 126.5 53.5t48.5 145.5q0 99 -52 155t-140 56q-117 0 -226 -92zM1002 -690zM991 0z"/>
    <glyph glyph-name="uni0D6E" unicode="൮" horiz-adv-x="1963" d="M891 111q130 114 179 217t49 226q0 210 -115 335t-314 125q-127 0 -225 -57.5t-150.5 -163t-52.5 -234.5q0 -148 62 -260t187 -188l-101 -129q-157 89 -243.5 241.5t-86.5 343.5q0 174 76.5 311.5t216.5 210.5t325 73t321.5 -72t209 -207t72.5 -308q0 -121 -38 -224.5 t-125 -206.5h501v991h179v-914q0 -246 -83 -378.5t-232 -193.5t-366 -61q-132 0 -228 21l20 147q75 -18 201 -18q202 0 323.5 65.5t163.5 196.5h-653zM1002 -690z"/>
    <glyph glyph-name="uni0D6F" unicode="൯" horiz-adv-x="2298" d="M1690 943q-62 37 -132.5 55.5t-150.5 18.5q-146 0 -230 -54.5t-120 -145t-36 -272.5v-545h-177v597q0 116 -9 182t-38.5 119t-83 84.5t-131.5 31.5q-139 0 -230.5 -118.5t-91.5 -298.5q0 -159 63 -283.5t182 -201.5l-117 -129q-162 128 -235 275.5t-73 338.5 q0 166 64 295.5t180 199.5t266 70q119 0 208 -51t149 -152q72 101 185 152t267 51q128 0 237.5 -35t200.5 -104q163 86 217 136t54 113q0 69 -51 146l166 77q65 -92 65 -212q0 -106 -71.5 -185.5t-265.5 -181.5q81 -96 121.5 -210t40.5 -245q0 -231 -115.5 -358t-327.5 -127 q-192 0 -303.5 109.5t-111.5 289.5q0 169 98 301t337 267zM1807 838q-203 -119 -287.5 -223t-84.5 -240q0 -124 63 -189.5t175 -65.5q258 0 258 341q0 105 -32 204t-92 173zM822 1726zM659 144z"/>
    <glyph glyph-name="uni0D70" unicode="൰" horiz-adv-x="2221" d="M667 1135v-649q0 -149 28 -220t87 -107t152 -36q87 0 147 39t89.5 110.5t29.5 232.5v629h177v-593q0 -113 8.5 -179.5t38.5 -120.5t84 -86t131 -32q139 0 230.5 119.5t91.5 298.5q0 317 -245 491l122 130q161 -130 232 -279.5t71 -341.5q0 -163 -63.5 -293t-179.5 -201 t-267 -71q-111 0 -195 43.5t-149 143.5q-61 -93 -151.5 -140t-202.5 -47q-176 0 -278 109q-23 -253 -158 -375t-385 -122q-104 0 -183 21l15 147q57 -18 155 -18q131 0 217 46t129.5 137t43.5 287v927h178zM1561 990zM1002 -690zM1261 0z"/>
    <glyph glyph-name="uni0D71" unicode="൱" horiz-adv-x="1825" d="M901 976q63 97 143 141.5t204 44.5q231 0 359 -183t128 -520q0 -442 -184 -656.5t-555 -214.5q-143 0 -247 21l20 147q82 -18 222 -18q284 0 423 171.5t139 534.5q0 275 -82 422.5t-226 147.5q-65 0 -111.5 -20t-80.5 -65.5t-48 -110t-14 -221.5v-597h-177v597 q0 148 -13.5 213.5t-47.5 112.5t-81 69.5t-107 22.5q-85 0 -155.5 -53.5t-110 -150.5t-39.5 -214q0 -315 245 -485l-117 -130q-162 128 -235 275.5t-73 339.5q0 161 60.5 291.5t172 202t257.5 71.5q106 0 186 -43t145 -143zM702 -690zM669 144z"/>
    <glyph glyph-name="uni0D72" unicode="൲" horiz-adv-x="2889" d="M1021 0h-177v597q0 116 -9 182t-38.5 119t-83 84.5t-131.5 31.5q-139 0 -230.5 -118.5t-91.5 -298.5q0 -317 245 -485l-117 -129q-162 128 -235 275.5t-73 338.5q0 166 64 295.5t180 199.5t266 70q117 0 203 -46.5t148 -144.5q83 98 190 144.5t252 46.5q238 0 395.5 -127 t205.5 -363h197q-29 77 -29 157q0 138 99 221.5t255 83.5q164 0 253.5 -81t89.5 -213q0 -77 -27 -136t-82 -98.5t-128 -58.5t-195 -19h-418q1 -17 1 -33q0 -252 -114 -385.5t-322 -133.5q-178 0 -274 91t-96 244q0 96 42.5 169t120.5 118t172.5 59.5t247.5 14.5h29 q-42 166 -152 254t-281 88q-119 0 -200 -46t-116.5 -131.5t-35.5 -239.5v-597zM2348 672h61q91 0 146.5 13.5t86.5 52t31 95.5q0 73 -43.5 116t-121.5 43q-90 0 -137.5 -50t-47.5 -140q0 -72 25 -130zM1826 528h-35q-125 0 -193.5 -8t-120.5 -33t-79.5 -66.5t-27.5 -101.5 q0 -201 200 -201q131 0 193.5 95t62.5 292v23zM669 144z"/>
    <glyph glyph-name="uni0D73" unicode="൳" horiz-adv-x="1606" d="M1561 1062v-151h-567q-211 0 -327.5 -13.5t-196.5 -49t-133.5 -97.5t-76.5 -149q115 70 237 70q152 0 243 -89.5t91 -245.5q0 -166 -94.5 -263.5t-255.5 -97.5q-178 0 -289.5 124t-111.5 344q0 143 37 248t108.5 177t171 116.5t218 60.5t307.5 16h639zM241 436 q0 -149 65.5 -233t179.5 -84q79 0 126.5 54.5t47.5 149.5q0 96 -52.5 151t-139.5 55q-116 0 -227 -93zM434 1162z"/>
    <glyph glyph-name="uni0D74" unicode="൴" horiz-adv-x="1885" d="M997 1623h177v-478q304 -58 467.5 -245t163.5 -469q0 -214 -107.5 -334.5t-302.5 -120.5q-132 0 -222.5 55.5t-133 149t-42.5 271.5v560q-39 2 -79 2q-273 0 -445.5 -109t-214.5 -308q116 75 244 75q152 0 243 -89.5t91 -245.5q0 -166 -94.5 -263.5t-255.5 -97.5 q-117 0 -211 61t-144.5 174.5t-50.5 264.5q0 213 101 368.5t292 236.5t445 81q40 0 79 -2v463zM1174 993v-496q0 -170 21.5 -236.5t73.5 -103.5t126 -37q112 0 170 78t58 229q0 213 -117.5 363.5t-331.5 202.5zM247 436q6 -155 71 -236t173 -81q79 0 126.5 54.5t47.5 149.5 q0 96 -52.5 151t-139.5 55q-117 0 -226 -93zM730 1726z"/>
    <glyph glyph-name="uni0D75" unicode="൵" horiz-adv-x="2525" d="M1917 943q-62 37 -132.5 55.5t-150.5 18.5q-146 0 -230 -54.5t-120 -145t-36 -272.5v-545h-177v627q0 165 -40 240.5t-114 111.5t-186 36q-185 0 -313 -113.5t-159 -307.5q116 78 248 78q152 0 243 -89.5t91 -245.5q0 -166 -94.5 -263.5t-255.5 -97.5q-119 0 -212.5 60.5 t-143.5 178t-50 279.5q0 201 81 352.5t230.5 233.5t337.5 82q143 0 249 -45.5t194 -153.5q74 99 186 149t263 50q128 0 237.5 -35t200.5 -104q163 86 217 136t54 113q0 69 -51 146l166 77q65 -92 65 -212q0 -106 -71.5 -185.5t-265.5 -181.5q81 -96 121.5 -210t40.5 -245 q0 -231 -115.5 -358t-327.5 -127q-192 0 -303.5 109.5t-111.5 289.5q0 169 98 301t337 267zM2034 838q-203 -119 -287.5 -223t-84.5 -240q0 -124 63 -189.5t175 -65.5q258 0 258 341q0 105 -32 204t-92 173zM251 436q6 -153 70.5 -235t173.5 -82q79 0 127 53t48 150t-52 152 t-140 55q-116 0 -227 -93zM1130 1726z"/>
    <glyph glyph-name="uni0D79" unicode="൹" horiz-adv-x="2349" d="M1021 0h-177v597q0 116 -9 182t-38.5 119t-83 84.5t-131.5 31.5q-139 0 -230.5 -118.5t-91.5 -298.5q0 -317 245 -485l-117 -129q-162 128 -235 275.5t-73 338.5q0 166 64 295.5t180 199.5t266 70q117 0 203 -46.5t148 -144.5q83 98 190 144.5t252 46.5q238 0 395.5 -127 t205.5 -363h320v-144h-305q1 -17 1 -33q0 -252 -114 -385.5t-322 -133.5q-178 0 -274 91t-96 244q0 96 42.5 169t120.5 118t172.5 59.5t247.5 14.5h29q-42 166 -152 254t-281 88q-119 0 -200 -46t-116.5 -131.5t-35.5 -239.5v-597zM1826 528h-35q-125 0 -193.5 -8 t-120.5 -33t-79.5 -66.5t-27.5 -101.5q0 -201 200 -201q131 0 193.5 95t62.5 292v23zM644 144z"/>
    <glyph glyph-name="uni0D7A" unicode="ൺ" horiz-adv-x="3110" d="M1248 0h-177v627q0 165 -40 240.5t-114 111.5t-186 36q-185 0 -313 -113.5t-159 -307.5q116 78 248 78q152 0 243 -89.5t91 -245.5q0 -166 -94.5 -263.5t-255.5 -97.5q-119 0 -212.5 60.5t-143.5 178t-50 279.5q0 201 81 352.5t230.5 233.5t337.5 82q136 0 239 -41 t188 -139q65 90 153.5 135t200.5 45q129 0 216.5 -48.5t151.5 -155.5q74 102 187 153t266 51q136 0 256 -46q64 64 90 114.5t26 102.5q0 64 -41.5 103t-117.5 39q-81 0 -153 -22l-40 140q108 30 220 30q151 0 231 -76t80 -178q0 -86 -38.5 -162t-123.5 -161 q144 -99 224.5 -259t80.5 -334q0 -227 -107.5 -352t-305.5 -125q-195 0 -300.5 121.5t-105.5 347.5q0 149 66.5 287.5t200.5 267.5q-60 17 -130 17q-152 0 -236 -55.5t-119 -146t-35 -270.5v-545h-177v652q0 149 -28 220t-87 107t-152 36q-86 0 -145.5 -37.5t-90 -110 t-30.5 -234.5v-633zM2622 933q-113 -101 -172 -226.5t-59 -266.5q0 -159 58.5 -239.5t169.5 -80.5q112 0 170.5 80.5t58.5 239.5q0 150 -59 283t-167 210zM251 436q6 -153 70.5 -235t173.5 -82q79 0 127 53t48 150t-52 152t-140 55q-116 0 -227 -93zM1130 1726z"/>
    <glyph glyph-name="uni0D7B" unicode="ൻ" horiz-adv-x="2173" d="M947 959q72 101 185 152t267 51q136 0 256 -46q64 64 90 114.5t26 102.5q0 64 -41.5 103t-117.5 39q-81 0 -153 -22l-40 140q108 30 220 30q99 0 168.5 -34t106 -94.5t36.5 -125.5q0 -86 -38.5 -162t-123.5 -161q144 -99 224.5 -259t80.5 -334q0 -227 -107.5 -352 t-305.5 -125q-195 0 -300.5 121.5t-105.5 347.5q0 149 66.5 287.5t200.5 267.5q-60 17 -130 17q-152 0 -236 -55.5t-119 -146t-35 -270.5v-545h-177v597q0 116 -9 182t-38.5 119t-83 84.5t-131.5 31.5q-139 0 -230.5 -118.5t-91.5 -298.5q0 -159 63 -283.5t182 -201.5 l-117 -129q-162 128 -235 275.5t-73 338.5q0 166 64 295.5t180 199.5t266 70q119 0 208 -51t149 -152zM1685 933q-113 -101 -172 -226.5t-59 -266.5q0 -159 58.5 -239.5t169.5 -80.5q112 0 170.5 80.5t58.5 239.5q0 150 -59 283t-167 210zM1010 1727zM654 144z"/>
    <glyph glyph-name="uni0D7C" unicode="ർ" horiz-adv-x="1507" d="M1121 1045q145 -99 225.5 -257.5t80.5 -334.5q0 -227 -107.5 -352t-305.5 -125q-195 0 -300.5 121.5t-105.5 347.5q0 148 64 283.5t198 267.5q-68 20 -150 20q-211 0 -334.5 -127t-123.5 -330q0 -148 62 -260t187 -188l-101 -129q-157 89 -243.5 241.5t-86.5 343.5 q0 175 79.5 312.5t224 210t335.5 72.5q144 0 268 -49q59 56 88.5 111t29.5 109q0 64 -41.5 103t-117.5 39q-81 0 -153 -22l-40 140q108 30 220 30q99 0 168.5 -34t106 -94.5t36.5 -125.5q0 -84 -37.5 -160t-125.5 -164zM1014 929q-113 -105 -169.5 -227t-56.5 -262 q0 -159 58.5 -239.5t169.5 -80.5q112 0 170.5 80.5t58.5 239.5q0 150 -60.5 281t-170.5 208zM594 144zM584 0zM610 1727z"/>
    <glyph glyph-name="uni0D7D" unicode="ൽ" horiz-adv-x="2454" d="M1206 976q120 -97 185 -234.5t65 -293.5q0 -223 -109.5 -347.5t-307.5 -124.5q-196 0 -307 125t-111 347q0 171 73 310.5t217 238.5q-76 24 -175 24q-143 0 -250.5 -56t-165.5 -162.5t-58 -243.5q0 -296 249 -448l-101 -129q-157 89 -243.5 241.5t-86.5 343.5 q0 176 80 313t224 209.5t334 72.5q185 0 341 -81q87 40 192 60.5t246 20.5q252 0 413 -71q78 72 110 128.5t32 113.5q0 64 -41.5 103t-117.5 39q-81 0 -153 -22l-40 140q108 30 220 30q99 0 168.5 -34t106 -94.5t36.5 -125.5q0 -88 -42 -168.5t-141 -175.5 q160 -94 243 -241.5t83 -330.5q0 -227 -107.5 -352t-305.5 -125q-195 0 -300.5 121.5t-105.5 347.5q0 143 60 275.5t181 254.5q-133 39 -301 39q-156 0 -289 -38zM1060 917q-259 -146 -259 -464q0 -166 60.5 -249.5t177.5 -83.5q237 0 237 333q0 135 -56.5 259t-159.5 205z M1943 912q-106 -104 -157 -224t-51 -248q0 -159 58.5 -239.5t169.5 -80.5q112 0 170.5 80.5t58.5 239.5q0 158 -62.5 278t-186.5 194zM594 144zM584 0zM610 1726z"/>
    <glyph glyph-name="uni0D7E" unicode="ൾ" horiz-adv-x="2139" d="M1625 1119q58 58 85 109.5t27 104.5q0 64 -41.5 103t-117.5 39q-81 0 -153 -22l-40 140q108 30 220 30q99 0 168.5 -34t106 -94.5t36.5 -125.5q0 -82 -36.5 -157.5t-122.5 -162.5q144 -101 223 -262t79 -336q0 -225 -107.5 -350t-305.5 -125q-195 0 -300.5 121.5 t-105.5 347.5q0 149 67 288.5t202 269.5q-60 15 -120 15q-174 0 -277.5 -104t-103.5 -375v-41q0 -219 -61 -324.5t-153.5 -151t-224.5 -45.5q-225 0 -357 152.5t-132 416.5q0 192 77.5 340.5t239.5 275.5l110 -127q-126 -90 -186.5 -211t-60.5 -281q0 -189 83.5 -303.5 t217.5 -114.5q97 0 155.5 37.5t85.5 119.5t27 246v45q0 205 63 328.5t189 192t305 68.5q125 0 239 -43zM1654 936q-117 -106 -175.5 -230t-58.5 -266q0 -159 58.5 -239.5t169.5 -80.5q112 0 170.5 80.5t58.5 239.5q0 154 -59 286t-164 210zM610 1726zM661 1134zM661 990z "/>
    <glyph glyph-name="uni0D7F" unicode="ൿ" horiz-adv-x="2470" d="M773 72q-82 -51 -160.5 -73.5t-169.5 -22.5q-181 0 -279.5 88t-98.5 247q0 79 32 145t91.5 111t146 71.5t255.5 32.5q25 233 152 362t325 129q203 0 326.5 -126.5t147.5 -363.5h243q53 100 117 210q108 190 141.5 275t33.5 160q0 76 -41 117t-118 41q-81 0 -153 -22 l-40 140q108 30 220 30q151 0 231 -77.5t80 -197.5q0 -111 -39.5 -210t-181.5 -337q-47 -80 -74 -130q224 -6 334.5 -101t110.5 -247q0 -164 -93.5 -255.5t-264.5 -91.5q-170 0 -269 94t-99 248q0 113 39 210h-173q-12 -267 -137.5 -409.5t-338.5 -142.5q-176 0 -296 96z M766 672h598q-16 173 -90.5 259.5t-206.5 86.5q-134 0 -209.5 -86.5t-91.5 -259.5zM1368 528h-606q6 -204 81.5 -306t220.5 -102q146 0 221 101.5t83 306.5zM1894 528q-40 -105 -40 -197q0 -102 51.5 -156.5t140.5 -54.5t135.5 48.5t46.5 144.5q0 58 -23.5 99.5t-68 69 t-100.5 37t-133 9.5h-9zM675 185q-41 68 -63 153.5t-26 188.5q-177 -2 -260.5 -54.5t-83.5 -154.5q0 -96 53.5 -147t153.5 -51q120 0 226 65zM1010 1726z"/>
    <glyph glyph-name="uni200B" unicode="​" horiz-adv-x="0"/>
    <glyph glyph-name="uni200B" unicode="﻿" horiz-adv-x="0"/>
    <glyph glyph-name="uni200C" unicode="‌" horiz-adv-x="0" d="M-54 -339v1952h108v-1952h-108z"/>
    <glyph glyph-name="uni200D" unicode="‍" horiz-adv-x="0" d="M74 1323l225 -220l-75 -73l-170 169v-1537h-108v1537l-170 -169l-75 73l225 220l-225 217l75 73l224 -220l224 220l75 -74z"/>
    <glyph glyph-name="endash" unicode="–" horiz-adv-x="1024" d="M82 465v168h860v-168h-860zM324 1134zM324 0z"/>
    <glyph glyph-name="emdash" unicode="—" horiz-adv-x="2048" d="M82 465v168h1884v-168h-1884zM324 1134zM324 0z"/>
    <glyph glyph-name="quoteleft" unicode="‘" horiz-adv-x="458" d="M87 1137l-14 22q14 54 33.5 115t42.5 123t49 123.5t51 117.5h137q-15 -61 -29.5 -127t-27.5 -131.5t-24 -127.5t-19 -115h-199zM131 1463zM121 1726z"/>
    <glyph glyph-name="quoteright" unicode="’" horiz-adv-x="458" d="M372 1638l14 -22q-14 -55 -33.5 -115.5t-43 -123t-49 -123.5t-50.5 -117h-137q14 60 28.5 126t28 132t24.5 128t19 115h199zM411 1463zM401 1726z"/>
    <glyph glyph-name="quotedblleft" unicode="“" horiz-adv-x="843" d="M472 1137l-14 22q14 54 33.5 115t42.5 123t49 123.5t51 117.5h137q-15 -61 -29.5 -127t-27.5 -131.5t-24 -127.5t-19 -115h-199zM87 1137l-14 22q14 54 33.5 115t42.5 123t49 123.5t51 117.5h137q-15 -61 -29.5 -127t-27.5 -131.5t-24 -127.5t-19 -115h-199zM451 1463z M441 1726z"/>
    <glyph glyph-name="quotedblright" unicode="”" horiz-adv-x="843" d="M372 1638l14 -22q-14 -55 -33.5 -115.5t-43 -123t-49 -123.5t-50.5 -117h-137q14 60 28.5 126t28 132t24.5 128t19 115h199zM757 1638l14 -22q-14 -55 -33.5 -115.5t-43 -123t-49 -123.5t-50.5 -117h-137q14 60 28.5 126t28 132t24.5 128t19 115h199zM451 1463zM441 1726 z"/>
    <glyph glyph-name="ellipsis" unicode="…" horiz-adv-x="1647" d="M147 111q0 38 10 64.5t27 43t40 24t50 7.5q26 0 49.5 -7.5t40.5 -24t27 -43t10 -64.5q0 -37 -10 -63.5t-27 -43.5t-40.5 -25t-49.5 -8q-27 0 -50 8t-40 25t-27 43.5t-10 63.5zM696 111q0 38 10 64.5t27 43t40 24t50 7.5q26 0 49.5 -7.5t40.5 -24t27 -43t10 -64.5 q0 -37 -10 -63.5t-27 -43.5t-40.5 -25t-49.5 -8q-27 0 -50 8t-40 25t-27 43.5t-10 63.5zM1245 111q0 38 9.5 64.5t27 43t40.5 24t50 7.5q26 0 49.5 -7.5t40.5 -24t27 -43t10 -64.5q0 -37 -10 -63.5t-27 -43.5t-40.5 -25t-49.5 -8q-54 0 -90.5 33t-36.5 107z"/>
    <glyph glyph-name="uni20B9" unicode="₹" d="M732 956q-3 -75 -29 -138.5t-73 -113t-114 -82.5t-154 -47l443 -575h-228l-430 567l21 158h74q54 0 93.5 5t69 15t56 30.5t51 63.5t34.5 117h-399v148h398q-9 52 -27 90.5t-45.5 65t-72 40.5t-122.5 14h-131v148h904v-148h-410q34 -36 56.5 -88.5t32.5 -121.5h321v-148 h-319z"/>
    <glyph glyph-name="minus" unicode="−" d="M103 649v146h965v-146h-965zM580 0zM591 1463z"/>
    <glyph glyph-name="uni25CC" unicode="◌" horiz-adv-x="1184" d="M591 855q-64 0 -64 65q0 64 64 64q66 0 66 -64q0 -65 -66 -65zM311 743q-64 0 -64 65q0 64 64 64q65 0 65 -64q0 -65 -65 -65zM872 743q-64 0 -64 65q0 64 64 64q65 0 65 -64q0 -65 -65 -65zM973 473q-65 0 -65 65t65 65q66 0 66 -65t-66 -65zM210 473q-65 0 -65 65 t65 65t65 -65t-65 -65zM311 204q-64 0 -64 65q0 64 64 64q65 0 65 -64q0 -65 -65 -65zM872 204q-64 0 -64 65q0 64 64 64q65 0 65 -64q0 -65 -65 -65zM591 91q-64 0 -64 65t64 65q66 0 66 -65t-66 -65zM627 1134zM632 0z"/>
    <glyph glyph-name="uni0D15_uni0D4D" horiz-adv-x="2125" d="M775 74q-81 -51 -160 -74.5t-172 -23.5q-181 0 -279.5 88t-98.5 247q0 79 32 146t94.5 112.5t150 71t252.5 30.5q24 233 151.5 362t325.5 129q203 0 326.5 -126.5t148.5 -364.5q269 -5 391.5 -99t122.5 -261q0 -158 -93.5 -246.5t-263.5 -88.5q-125 0 -206 25l40 138 q72 -19 140 -19q206 0 206 189q0 104 -80 158t-254 60q-12 -267 -137.5 -409t-338.5 -142q-179 0 -298 98zM771 672h598q-17 173 -91.5 259.5t-206.5 86.5q-135 0 -210 -86.5t-90 -259.5zM1372 528h-605q6 -204 81 -306t220 -102t221 102t83 306zM678 188q-40 67 -62 152 t-26 187q-182 -2 -265 -54.5t-83 -154.5q0 -96 53.5 -147t153.5 -51q120 0 229 68zM1547 1675l152 -28q-12 -45 -12 -100q0 -98 54 -147.5t157 -49.5t157 49.5t54 147.5q0 55 -12 100l152 28q20 -71 20 -135q0 -152 -99 -240.5t-272 -88.5t-272 88.5t-99 240.5q0 71 20 135z M1885 1727zM1916 1134z"/>
    <glyph glyph-name="uni0D16_uni0D4D" horiz-adv-x="2047" d="M975 111q130 114 179 217t49 226q0 212 -120.5 336t-325.5 124q-183 0 -320.5 -112.5t-178.5 -304.5q116 75 244 75q152 0 243 -89.5t91 -245.5q0 -166 -94.5 -263.5t-255.5 -97.5q-118 0 -212 60.5t-144 174t-50 265.5q0 201 87 357.5t245.5 242.5t353.5 86 q292 0 455.5 -159.5t163.5 -426.5q0 -125 -36.5 -227.5t-123.5 -204.5h498v990h179v-1134h-854zM247 437q4 -152 68.5 -235t174.5 -83q80 0 127.5 54.5t47.5 149.5q0 96 -52.5 151t-139.5 55q-118 0 -226 -92zM1469 1675l152 -28q-12 -45 -12 -100q0 -98 54 -147.5 t157 -49.5t157 49.5t54 147.5q0 55 -12 100l152 28q20 -71 20 -135q0 -152 -99 -240.5t-272 -88.5t-272 88.5t-99 240.5q0 71 20 135zM1807 1727zM1838 1134z"/>
    <glyph glyph-name="uni0D17_uni0D4D" horiz-adv-x="1837" d="M828 641q0 194 44 295t139 163.5t262 62.5q219 0 351.5 -154t132.5 -408q0 -186 -71.5 -332t-245.5 -285l-110 126q247 177 247 485q0 189 -83.5 304.5t-223.5 115.5q-106 0 -167 -55t-78 -151.5t-17 -291.5v-18q0 -211 -56.5 -315t-150 -155t-232.5 -51 q-227 0 -358 149.5t-131 411.5q0 197 76.5 346t240.5 278l110 -127q-247 -177 -247 -492q0 -190 82.5 -304t218.5 -114q115 0 173 50.5t76 143t18 295.5v27zM1169 144zM1169 0zM661 1134zM661 990zM1259 1675l152 -28q-12 -45 -12 -100q0 -98 54 -147.5t157 -49.5t157 49.5 t54 147.5q0 55 -12 100l152 28q20 -71 20 -135q0 -152 -99 -240.5t-272 -88.5t-272 88.5t-99 240.5q0 71 20 135zM1597 1727zM1628 1134z"/>
    <glyph glyph-name="uni0D18_uni0D4D" horiz-adv-x="2714" d="M1262 454v-310h1130v990h177v-1134h-1484v454h-413l-59 107q89 83 89 216q0 113 -60.5 177t-171.5 64q-104 0 -168 -65.5t-64 -163.5q0 -150 120 -230l-93 -119q-99 68 -149.5 158t-50.5 195q0 163 112 266t293 103q120 0 212 -45.5t142 -128.5t50 -180q0 -131 -63 -210 h274v43q0 193 59 301.5t168.5 164t266.5 55.5q246 0 369 -126t123 -377v-205h-809zM1894 655q0 192 -74.5 277.5t-242.5 85.5q-166 0 -240.5 -86t-74.5 -274v-60h632v57zM2136 1675l152 -28q-12 -45 -12 -100q0 -98 54 -147.5t157 -49.5t157 49.5t54 147.5q0 55 -12 100 l152 28q20 -71 20 -135q0 -152 -99 -240.5t-272 -88.5t-272 88.5t-99 240.5q0 71 20 135zM2474 1727zM2505 1134z"/>
    <glyph glyph-name="uni0D19_uni0D4D" horiz-adv-x="2175" d="M1071 627q0 165 -40 240.5t-114 111.5t-186 36q-185 0 -312.5 -113t-159.5 -308q118 78 248 78q152 0 243 -89.5t91 -245.5q0 -166 -94.5 -263.5t-255.5 -97.5q-119 0 -212.5 60.5t-143.5 178t-50 279.5q0 201 81 352.5t230.5 233.5t337.5 82q150 0 257 -48.5t197 -163.5 q75 102 196 157t261 55q200 0 317 -88t117 -233q0 -98 -47.5 -164.5t-147.5 -109.5q106 -37 161.5 -109t55.5 -166q0 -149 -96.5 -232t-269.5 -83q-98 0 -202 23l37 141q81 -20 145 -20q107 0 158 43t51 131q0 59 -32 103t-89.5 68t-180.5 24h-54v144h53q281 0 281 192 q0 90 -64.5 139t-188.5 49q-136 0 -225 -54.5t-132.5 -154.5t-43.5 -308v-497h-177v627zM252 436q5 -151 69 -234t174 -83q79 0 127 53t48 150t-52 152t-140 55q-116 0 -226 -93zM1597 1675l152 -28q-12 -45 -12 -100q0 -98 54 -147.5t157 -49.5t157 49.5t54 147.5 q0 55 -12 100l152 28q20 -71 20 -135q0 -152 -99 -240.5t-272 -88.5t-272 88.5t-99 240.5q0 71 20 135zM1935 1727zM1966 1134z"/>
    <glyph glyph-name="uni0D1A_uni0D4D" horiz-adv-x="1911" d="M35 0v144h802q94 87 94 217q0 113 -55 177.5t-157 64.5q-100 0 -156.5 -59.5t-56.5 -165.5q0 -51 5 -79l-170 -23q-11 60 -11 122q0 158 108.5 253.5t285.5 95.5q179 0 279 -102t100 -266q0 -134 -81 -235h565v990h179v-1134h-1731zM1333 1675l152 -28q-12 -45 -12 -100 q0 -98 54 -147.5t157 -49.5t157 49.5t54 147.5q0 55 -12 100l152 28q20 -71 20 -135q0 -152 -99 -240.5t-272 -88.5t-272 88.5t-99 240.5q0 71 20 135zM1671 1727zM1702 1134z"/>
    <glyph glyph-name="uni0D1B_uni0D4D" horiz-adv-x="2762" d="M2479 732q-51 134 -177.5 208t-300.5 74q-226 0 -355 -121t-129 -334q0 -125 51 -231t177 -217l-73 -111h-1637v144h802q94 87 94 217q0 113 -55 177.5t-157 64.5q-100 0 -156.5 -59.5t-56.5 -165.5q0 -51 5 -79l-170 -23q-11 60 -11 122q0 158 108.5 253.5t285.5 95.5 q179 0 279 -102t100 -266q0 -134 -81 -235h479q-166 194 -166 423q0 169 77.5 306.5t228.5 213t359 75.5q209 0 362.5 -78.5t236.5 -231t83 -357.5q0 -252 -114.5 -385.5t-319.5 -133.5q-182 0 -290 120t-108 306q0 193 105 309t280 116q138 0 244 -95zM2508 561 q-47 61 -108.5 92t-129.5 31q-120 0 -183.5 -72.5t-63.5 -205.5q0 -140 57.5 -213t167.5 -73q134 0 199 96.5t65 291.5q0 19 -4 53zM1387 1134zM2184 1675l152 -28q-12 -45 -12 -100q0 -98 54 -147.5t157 -49.5t157 49.5t54 147.5q0 55 -12 100l152 28q20 -71 20 -135 q0 -152 -99 -240.5t-272 -88.5t-272 88.5t-99 240.5q0 71 20 135zM2522 1727zM2553 1134z"/>
    <glyph glyph-name="uni0D1C_uni0D4D" horiz-adv-x="1923" d="M1035 997q67 82 159 123.5t210 41.5q133 0 232 -51t151.5 -142.5t52.5 -196.5q0 -119 -47 -196t-148 -130q70 -28 105 -80.5t35 -129.5q0 -124 -78.5 -192t-221.5 -68q-144 0 -224.5 69t-83.5 194q-119 -84 -345.5 -173.5t-426.5 -89.5q-156 0 -243 65t-87 190 q0 56 26.5 109.5t105 95t238.5 41.5h725q183 0 281 23.5t155.5 86t57.5 178.5q0 107 -72.5 180.5t-207.5 73.5q-100 0 -160.5 -40.5t-80.5 -106.5t-20 -189v-152h-169v130q0 100 -17.5 164t-62 111t-108 68t-169.5 21q-170 0 -265 -56q51 15 101 15q127 0 196 -65.5 t69 -169.5q0 -113 -80.5 -185.5t-219.5 -72.5q-146 0 -228.5 77t-82.5 213q0 105 62.5 192t184.5 138t287 51q140 0 237 -39t177 -126zM243 847q-13 -35 -13 -67q0 -82 42 -124t123 -42q72 0 109.5 37t37.5 101q0 62 -38 96.5t-116 34.5q-74 0 -145 -36zM1327 323 q-8 -31 -8 -69q0 -74 42.5 -112.5t120.5 -38.5q72 0 109.5 34.5t37.5 97.5q0 66 -41 100.5t-111 34.5q-80 0 -150 -47zM1159 355q-109 -15 -261 -15h-404q-112 0 -157.5 -10t-69 -35t-23.5 -62q0 -117 161 -117q79 0 168.5 18.5t166.5 48t289 121.5q64 28 130 51zM1345 1675 l152 -28q-12 -45 -12 -100q0 -98 54 -147.5t157 -49.5t157 49.5t54 147.5q0 55 -12 100l152 28q20 -71 20 -135q0 -152 -99 -240.5t-272 -88.5t-272 88.5t-99 240.5q0 71 20 135zM1683 1727zM1714 1134z"/>
    <glyph glyph-name="uni0D1D_uni0D4D" horiz-adv-x="3389" d="M2368 1134h177v-593q0 -113 8.5 -179.5t38.5 -120.5t84 -86t131 -32q139 0 230.5 119.5t91.5 298.5q0 317 -245 491l122 130q162 -130 232.5 -279.5t70.5 -341.5q0 -163 -63.5 -293t-179.5 -201t-267 -71q-112 0 -195 44t-149 143q-113 -187 -350 -187q-87 0 -161 29 t-132 98.5t-78.5 160.5t-20.5 244v31q0 266 -100.5 374t-290.5 108q-86 0 -152 -18q135 -96 210 -241t75 -314q0 -224 -109.5 -348t-306.5 -124q-196 0 -307 125t-111 347q0 173 71.5 314t207.5 239q-70 20 -164 20q-143 0 -250.5 -56t-165.5 -162.5t-58 -243.5 q0 -296 249 -448l-101 -129q-157 89 -243.5 241.5t-86.5 343.5q0 176 80 312.5t224 209.5t334 73q173 0 315 -67q147 67 302 67q211 0 332 -76t172 -192.5t51 -309.5v-42q0 -174 21 -253.5t75 -122.5t143 -43q83 0 139.5 44t78 121t21.5 217v629zM1035 935 q-111 -76 -172.5 -201.5t-61.5 -280.5q0 -166 60.5 -249.5t177.5 -83.5q236 0 236 333q0 146 -65 276t-175 206zM569 144zM569 0zM2761 990zM2811 1675l152 -28q-12 -45 -12 -100q0 -98 54 -147.5t157 -49.5t157 49.5t54 147.5q0 55 -12 100l152 28q20 -71 20 -135 q0 -152 -99 -240.5t-272 -88.5t-272 88.5t-99 240.5q0 71 20 135zM3149 1727zM3180 1134z"/>
    <glyph glyph-name="uni0D1E_uni0D4D" horiz-adv-x="2961" d="M1071 0v627q0 165 -40 240.5t-114 111.5t-186 36q-185 0 -312.5 -113t-159.5 -308q118 78 248 78q152 0 243 -89.5t91 -245.5q0 -166 -94.5 -263.5t-255.5 -97.5q-119 0 -212.5 60.5t-143.5 178t-50 279.5q0 201 81 352.5t230.5 233.5t337.5 82q148 0 252.5 -46.5 t190.5 -152.5q72 99 182.5 149t259.5 50q180 0 317 -66q146 66 337 66q186 0 323.5 -72.5t211 -207t73.5 -307.5q0 -384 -330 -593l-101 129q123 75 186 187.5t63 255.5q0 135 -54 243t-155 166t-237 58q-108 0 -183 -20q129 -98 199.5 -241.5t70.5 -311.5 q0 -223 -109.5 -347.5t-307.5 -124.5q-197 0 -307.5 125t-110.5 347q0 171 75.5 313t218.5 241q-65 19 -156 19q-157 0 -238.5 -54.5t-119 -141.5t-37.5 -277v-548h-177zM1933 937q-115 -73 -181.5 -201t-66.5 -283q0 -166 60.5 -249.5t177.5 -83.5q237 0 237 333 q0 151 -59.5 280.5t-167.5 203.5zM252 436q5 -151 69 -234t174 -83q79 0 127 53t48 150t-52 152t-140 55q-116 0 -226 -93zM2389 144zM2383 1675l152 -28q-12 -45 -12 -100q0 -98 54 -147.5t157 -49.5t157 49.5t54 147.5q0 55 -12 100l152 28q20 -71 20 -135 q0 -152 -99 -240.5t-272 -88.5t-272 88.5t-99 240.5q0 71 20 135zM2721 1727zM2752 1134z"/>
    <glyph glyph-name="uni0D1F_uni0D4D" horiz-adv-x="1152" d="M41 121l95 136q210 -133 464 -133q149 0 226 50t77 140q0 96 -66 141t-264 45h-20q-239 0 -360.5 76.5t-121.5 246.5q0 158 125 248.5t354 90.5q303 0 547 -139l-95 -137q-201 128 -454 128q-144 0 -221 -51t-77 -138q0 -94 70.5 -134.5t292.5 -40.5h15q242 0 348 -84 t106 -248q0 -160 -127 -251t-364 -91q-154 0 -283 33.5t-267 111.5zM574 1675l152 -28q-12 -45 -12 -100q0 -98 54 -147.5t157 -49.5t157 49.5t54 147.5q0 55 -12 100l152 28q20 -71 20 -135q0 -152 -99 -240.5t-272 -88.5t-272 88.5t-99 240.5q0 71 20 135zM912 1727z M943 1134z"/>
    <glyph glyph-name="uni0D20_uni0D4D" horiz-adv-x="1342" d="M1262 566q0 -269 -160 -429.5t-432 -160.5q-181 0 -314 74t-204.5 211t-71.5 311q0 173 71 308t204.5 208.5t311.5 73.5q275 0 435 -160t160 -436zM1080 569q0 202 -108.5 323.5t-299.5 121.5t-300.5 -119t-109.5 -326q0 -205 108 -325t300 -120q193 0 301.5 120 t108.5 325zM764 1675l152 -28q-12 -45 -12 -100q0 -98 54 -147.5t157 -49.5t157 49.5t54 147.5q0 55 -12 100l152 28q20 -71 20 -135q0 -152 -99 -240.5t-272 -88.5t-272 88.5t-99 240.5q0 71 20 135zM1102 1727zM1133 1134z"/>
    <glyph glyph-name="uni0D21_uni0D4D" horiz-adv-x="2505" d="M827 586q0 161 -19.5 245.5t-80 133.5t-160.5 49q-136 0 -221.5 -115t-85.5 -305q0 -307 245 -482l-117 -129q-165 131 -236.5 277.5t-71.5 339.5q0 256 137.5 409t363.5 153q105 0 185.5 -31.5t137.5 -97.5t79.5 -161t22.5 -266v-54q0 -186 21 -264.5t75 -121.5t143 -43 q83 0 139.5 44t78 121t21.5 217v629h177v-593q0 -113 8.5 -179.5t38.5 -120.5t84 -86t131 -32q139 0 230.5 119.5t91.5 298.5q0 317 -245 491l122 130q162 -130 232.5 -279.5t70.5 -341.5q0 -163 -63.5 -293t-179.5 -201t-267 -71q-112 0 -195 44t-149 143 q-113 -187 -350 -187q-138 0 -228 66.5t-128 169.5t-38 306v68zM669 144zM669 0zM1961 990zM1927 1675l152 -28q-12 -45 -12 -100q0 -98 54 -147.5t157 -49.5t157 49.5t54 147.5q0 55 -12 100l152 28q20 -71 20 -135q0 -152 -99 -240.5t-272 -88.5t-272 88.5t-99 240.5 q0 71 20 135zM2265 1727zM2296 1134z"/>
    <glyph glyph-name="uni0D22_uni0D4D" horiz-adv-x="2732" d="M1661 511q0 -161 38 -237.5t112.5 -113.5t189.5 -37q182 0 308.5 110.5t161.5 307.5q-109 -75 -238 -75q-160 0 -251 91t-91 251q0 161 96.5 256.5t261.5 95.5q179 0 288.5 -129.5t109.5 -368.5q0 -208 -80 -363.5t-228 -239t-335 -83.5q-139 0 -241.5 40t-193.5 143 q-114 -183 -348 -183q-138 0 -228 66.5t-128 169.5t-38 306v68q0 161 -19.5 245.5t-80 133.5t-160.5 49q-136 0 -221.5 -115t-85.5 -305q0 -307 245 -482l-117 -129q-165 131 -236.5 277.5t-71.5 339.5q0 256 137.5 409t363.5 153q105 0 185.5 -31.5t137.5 -97.5t79.5 -161 t22.5 -266v-54q0 -186 21 -264.5t75 -121.5t143 -43q83 0 139.5 44t78 121t21.5 217v629h177v-623zM2481 701q-7 155 -71.5 236.5t-172.5 81.5q-79 0 -127 -53t-48 -150q0 -100 50 -153.5t142 -53.5q120 0 227 92zM669 144zM669 0zM2154 1675l152 -28q-12 -45 -12 -100 q0 -98 54 -147.5t157 -49.5t157 49.5t54 147.5q0 55 -12 100l152 28q20 -71 20 -135q0 -152 -99 -240.5t-272 -88.5t-272 88.5t-99 240.5q0 71 20 135zM2492 1727zM2523 1134z"/>
    <glyph glyph-name="uni0D23_uni0D4D" horiz-adv-x="2802" d="M1162 982q65 90 153.5 135t199.5 45q121 0 209 -46t143 -138q67 94 151.5 139t208.5 45q148 0 260.5 -71.5t173.5 -201.5t61 -291q0 -192 -76.5 -339.5t-241.5 -276.5l-109 127q125 88 186 209t61 280q0 182 -89 299.5t-228 117.5q-80 0 -132 -27.5t-84 -79.5 t-41.5 -120.5t-9.5 -190.5v-597h-177v652q0 149 -28 220t-87 107t-152 36q-86 0 -145.5 -37.5t-90 -110t-30.5 -234.5v-633h-177v627q0 165 -40 240.5t-114 111.5t-186 36q-185 0 -312.5 -113t-159.5 -308q118 78 248 78q152 0 243 -89.5t91 -245.5q0 -166 -94.5 -263.5 t-255.5 -97.5q-119 0 -212.5 60.5t-143.5 178t-50 279.5q0 201 81 352.5t230.5 233.5t337.5 82q136 0 240 -42t188 -138zM252 436q5 -151 69 -234t174 -83q79 0 127 53t48 150t-52 152t-140 55q-116 0 -226 -93zM2169 144zM2224 1675l152 -28q-12 -45 -12 -100 q0 -98 54 -147.5t157 -49.5t157 49.5t54 147.5q0 55 -12 100l152 28q20 -71 20 -135q0 -152 -99 -240.5t-272 -88.5t-272 88.5t-99 240.5q0 71 20 135zM2562 1727zM2593 1134z"/>
    <glyph glyph-name="uni0D24_uni0D4D" horiz-adv-x="2077" d="M511 111l-101 -129q-157 89 -243.5 241.5t-86.5 343.5q0 176 80 312.5t224 209.5t334 73q176 0 323 -71q148 71 348 71q186 0 323.5 -72.5t211 -207t73.5 -307.5q0 -384 -330 -593l-101 129q123 75 186 187.5t63 255.5q0 135 -54.5 242.5t-156 166t-236.5 58.5 q-119 0 -192 -22q136 -99 208 -243.5t72 -307.5q0 -223 -109.5 -347.5t-307.5 -124.5q-196 0 -307 125t-111 347q0 166 73 307t214 244q-75 22 -172 22q-143 0 -250.5 -56t-165.5 -162.5t-58 -243.5q0 -296 249 -448zM1041 932q-113 -74 -176.5 -200t-63.5 -279 q0 -166 60.5 -249.5t177.5 -83.5q237 0 237 333q0 144 -63.5 273.5t-171.5 205.5zM579 144zM579 0zM1499 1675l152 -28q-12 -45 -12 -100q0 -98 54 -147.5t157 -49.5t157 49.5t54 147.5q0 55 -12 100l152 28q20 -71 20 -135q0 -152 -99 -240.5t-272 -88.5t-272 88.5 t-99 240.5q0 71 20 135zM1837 1727zM1868 1134z"/>
    <glyph glyph-name="uni0D25_uni0D4D" horiz-adv-x="1835" d="M695 144v481q0 148 31.5 241.5t97.5 159.5t159 101t210 35q172 0 288 -65t170 -176t54 -296v-625h-1560v1134h179v-990h371zM1528 558q0 162 -29 258t-107 147t-195 51q-115 0 -189.5 -50.5t-105 -142.5t-30.5 -247v-430h656v414zM1257 1675l152 -28q-12 -45 -12 -100 q0 -98 54 -147.5t157 -49.5t157 49.5t54 147.5q0 55 -12 100l152 28q20 -71 20 -135q0 -152 -99 -240.5t-272 -88.5t-272 88.5t-99 240.5q0 71 20 135zM1595 1727zM1626 1134z"/>
    <glyph glyph-name="uni0D26_uni0D4D" horiz-adv-x="1310" d="M1019 567q106 -37 161.5 -109t55.5 -166q0 -148 -102 -231.5t-284 -83.5q-117 0 -222 23l37 141q91 -20 171 -20q113 0 168 43t55 131q0 59 -32 103t-89.5 68t-180.5 24h-94v144h93q281 0 281 192q0 90 -70.5 139t-203.5 49q-226 0 -349 -151t-123 -418q0 -240 51 -426 l-168 -28q-29 93 -46.5 219t-17.5 239q0 333 172 523t485 190q207 0 327 -89.5t120 -231.5q0 -98 -47.5 -164.5t-147.5 -109.5zM469 0zM732 1675l152 -28q-12 -45 -12 -100q0 -98 54 -147.5t157 -49.5t157 49.5t54 147.5q0 55 -12 100l152 28q20 -71 20 -135 q0 -152 -99 -240.5t-272 -88.5t-272 88.5t-99 240.5q0 71 20 135zM1070 1727zM1101 1134z"/>
    <glyph glyph-name="uni0D27_uni0D4D" horiz-adv-x="1865" d="M397 1161l110 -126q-126 -90 -186.5 -211t-60.5 -281q0 -183 89 -301t228 -118q72 0 122 22t84.5 70t47.5 111t13 214v593h177v-593q0 -118 9 -183.5t39 -118t83 -84t131 -31.5q89 0 163 52t116.5 150t42.5 218q0 314 -245 488l122 130q162 -130 232.5 -278.5 t70.5 -339.5q0 -164 -62.5 -293.5t-178.5 -202t-269 -72.5q-115 0 -198.5 45t-143.5 140q-63 -98 -149 -141.5t-209 -43.5q-148 0 -260 71.5t-173.5 202t-61.5 293.5q0 192 76 340t241 278zM661 990zM1287 1675l152 -28q-12 -45 -12 -100q0 -98 54 -147.5t157 -49.5 t157 49.5t54 147.5q0 55 -12 100l152 28q20 -71 20 -135q0 -152 -99 -240.5t-272 -88.5t-272 88.5t-99 240.5q0 71 20 135zM1625 1727zM1656 1134z"/>
    <glyph glyph-name="uni0D28_uni0D4D" horiz-adv-x="1865" d="M1468 -17l-110 126q125 88 186 209t61 280q0 181 -88.5 298.5t-228.5 117.5q-72 0 -122.5 -22.5t-85.5 -72t-47 -114.5t-12 -208v-597h-177v597q0 116 -9 182t-38.5 119t-83 84.5t-131.5 31.5q-139 0 -230.5 -118.5t-91.5 -298.5q0 -317 245 -485l-117 -129 q-162 128 -235 275.5t-73 338.5q0 166 64 295.5t180 199.5t266 70q113 0 197 -44t145 -141q61 95 147 140t211 45q148 0 260.5 -71.5t173.5 -201.5t61 -291q0 -190 -75.5 -337.5t-241.5 -277.5zM669 144zM1287 1675l152 -28q-12 -45 -12 -100q0 -98 54 -147.5t157 -49.5 t157 49.5t54 147.5q0 55 -12 100l152 28q20 -71 20 -135q0 -152 -99 -240.5t-272 -88.5t-272 88.5t-99 240.5q0 71 20 135zM1625 1727zM1656 1134z"/>
    <glyph glyph-name="uni0D2A_uni0D4D" horiz-adv-x="1835" d="M1690 0h-1018l-59 107q89 83 89 216q0 113 -60.5 177t-171.5 64q-104 0 -168 -65.5t-64 -163.5q0 -150 120 -230l-93 -119q-99 68 -149.5 158t-50.5 195q0 163 112 266t293 103q120 0 212 -45.5t142 -128.5t50 -180q0 -131 -63 -210h700v990h179v-1134zM950 1162z M1257 1675l152 -28q-12 -45 -12 -100q0 -98 54 -147.5t157 -49.5t157 49.5t54 147.5q0 55 -12 100l152 28q20 -71 20 -135q0 -152 -99 -240.5t-272 -88.5t-272 88.5t-99 240.5q0 71 20 135zM1595 1727zM1626 1134z"/>
    <glyph glyph-name="uni0D2B_uni0D4D" horiz-adv-x="2312" d="M2182 0h-1510l-59 107q89 83 89 216q0 113 -60.5 177t-171.5 64q-104 0 -168 -65.5t-64 -163.5q0 -150 120 -230l-93 -119q-99 68 -149.5 158t-50.5 195q0 163 112 266t293 103q120 0 212 -45.5t142 -128.5t50 -180q0 -131 -63 -210h361v481q0 148 31.5 241.5t97.5 159.5 t159 101t210 35q172 0 288 -65t170 -176t54 -296v-625zM2005 558q0 162 -29 258t-107 147t-195 51q-115 0 -189.5 -50.5t-105 -142.5t-30.5 -247v-430h656v414zM1734 1675l152 -28q-12 -45 -12 -100q0 -98 54 -147.5t157 -49.5t157 49.5t54 147.5q0 55 -12 100l152 28 q20 -71 20 -135q0 -152 -99 -240.5t-272 -88.5t-272 88.5t-99 240.5q0 71 20 135zM2072 1727zM2103 1134z"/>
    <glyph glyph-name="uni0D2C_uni0D4D" horiz-adv-x="2674" d="M1071 627q0 165 -40 240.5t-114 111.5t-186 36q-185 0 -312.5 -113t-159.5 -308q118 78 248 78q152 0 243 -89.5t91 -245.5q0 -166 -94.5 -263.5t-255.5 -97.5q-119 0 -212.5 60.5t-143.5 178t-50 279.5q0 201 81 352.5t230.5 233.5t337.5 82q137 0 240 -41.5t188 -138.5 q63 91 144.5 135.5t210.5 44.5q148 0 260.5 -71.5t173.5 -201.5t61 -291q0 -125 -35.5 -234t-125.5 -220h499v990h179v-1134h-848l-74 111q133 127 179 239t46 248q0 182 -89 299.5t-228 117.5q-80 0 -132 -27.5t-84 -79.5t-41.5 -120.5t-9.5 -190.5v-597h-177v627zM252 436 q5 -151 69 -234t174 -83q79 0 127 53t48 150t-52 152t-140 55q-116 0 -226 -93zM2096 1675l152 -28q-12 -45 -12 -100q0 -98 54 -147.5t157 -49.5t157 49.5t54 147.5q0 55 -12 100l152 28q20 -71 20 -135q0 -152 -99 -240.5t-272 -88.5t-272 88.5t-99 240.5q0 71 20 135z M2434 1727zM2465 1134z"/>
    <glyph glyph-name="uni0D2D_uni0D4D" horiz-adv-x="1343" d="M922 639q-129 0 -169.5 -20t-40.5 -67q0 -44 40.5 -63.5t160.5 -19.5h25q179 0 257 -59.5t78 -177.5q0 -121 -95 -188.5t-267 -67.5q-101 0 -210 21.5t-180 53.5l63 140q154 -70 324 -70q196 0 196 106q0 51 -35.5 75t-135.5 24h-30q-207 0 -283 58t-76 165q0 68 33 117 t110 82t220 33h84q66 0 87.5 19.5t21.5 65.5q0 73 -75.5 110.5t-216.5 37.5q-250 0 -383.5 -149.5t-133.5 -419.5q0 -240 51 -426l-168 -28q-29 93 -46.5 219t-17.5 239q0 335 182.5 524t517.5 189q211 0 337 -78.5t126 -213.5q0 -81 -34 -133.5t-91.5 -75t-166.5 -22.5h-59 zM439 0zM765 1675l152 -28q-12 -45 -12 -100q0 -98 54 -147.5t157 -49.5t157 49.5t54 147.5q0 55 -12 100l152 28q20 -71 20 -135q0 -152 -99 -240.5t-272 -88.5t-272 88.5t-99 240.5q0 71 20 135zM1103 1727zM1134 1134z"/>
    <glyph glyph-name="uni0D2E_uni0D4D" horiz-adv-x="1485" d="M1360 0h-1235v549q0 202 62.5 331t196 205.5t343.5 76.5q193 0 334 -62.5t220 -191.5t79 -363v-545zM302 139h10q229 172 354.5 350.5t125.5 333.5q0 91 -41.5 141.5t-120.5 50.5q-140 0 -234 -123t-94 -383v-370zM1183 509q0 248 -76 355t-208 141q38 -47 53.5 -94.5 t15.5 -106.5q0 -156 -97.5 -316t-307.5 -350q89 6 176 6h444v365zM907 1675l152 -28q-12 -45 -12 -100q0 -98 54 -147.5t157 -49.5t157 49.5t54 147.5q0 55 -12 100l152 28q20 -71 20 -135q0 -152 -99 -240.5t-272 -88.5t-272 88.5t-99 240.5q0 71 20 135zM1245 1727z M1276 1134z"/>
    <glyph glyph-name="uni0D2F_uni0D4D" horiz-adv-x="2120" d="M802 1067q59 47 127.5 71t146.5 24q198 0 314 -130t116 -353q0 -168 -70 -313.5t-198 -240.5q56 -10 115 -10q236 0 369.5 143t133.5 381q0 116 -38 226.5t-112 199.5l142 97q92 -108 139.5 -241.5t47.5 -277.5q0 -199 -82.5 -352t-237.5 -234t-361 -81q-159 0 -285 54 q-132 -54 -299 -54q-206 0 -362 86.5t-242 249.5t-86 374q0 216 121.5 346t322.5 130q165 0 278 -95zM1066 175q120 69 190 204t70 300q0 163 -67.5 251t-182.5 88q-119 0 -189 -90t-70 -249q0 -156 66.5 -293.5t182.5 -210.5zM700 944q-68 74 -173 74q-124 0 -196 -89.5 t-72 -247.5q0 -156 63.5 -287t183 -205t278.5 -74q69 0 119 9q-133 105 -199 247t-66 321q0 141 62 252zM1561 1134zM1561 990zM1542 1675l152 -28q-12 -45 -12 -100q0 -98 54 -147.5t157 -49.5t157 49.5t54 147.5q0 55 -12 100l152 28q20 -71 20 -135q0 -152 -99 -240.5 t-272 -88.5t-272 88.5t-99 240.5q0 71 20 135zM1880 1727zM1911 1134z"/>
    <glyph glyph-name="uni0D30_uni0D4D" horiz-adv-x="1507" d="M1225 732q-50 133 -176.5 207.5t-302.5 74.5q-226 0 -355 -121t-129 -334q0 -296 249 -448l-101 -129q-157 89 -243.5 241.5t-86.5 343.5q0 169 77.5 306.5t228.5 213t359 75.5q209 0 362.5 -78.5t236.5 -231t83 -357.5q0 -252 -114.5 -385.5t-319.5 -133.5 q-182 0 -290 120t-108 306q0 193 105 309t280 116q138 0 245 -95zM1254 561q-47 60 -108.5 91.5t-130.5 31.5q-120 0 -183.5 -72.5t-63.5 -205.5q0 -140 57.5 -213t167.5 -73q134 0 199 96.5t65 291.5q0 16 -3 53zM569 144zM569 0zM929 1675l152 -28q-12 -45 -12 -100 q0 -98 54 -147.5t157 -49.5t157 49.5t54 147.5q0 55 -12 100l152 28q20 -71 20 -135q0 -152 -99 -240.5t-272 -88.5t-272 88.5t-99 240.5q0 71 20 135zM1267 1727zM1298 1134z"/>
    <glyph glyph-name="uni0D31_uni0D4D" horiz-adv-x="1381" d="M870 111q120 73 184.5 187t64.5 256q0 209 -114.5 334.5t-312.5 125.5q-129 0 -227 -58t-150.5 -163t-52.5 -234q0 -148 62 -260t187 -188l-101 -128q-157 88 -243.5 240.5t-86.5 343.5q0 174 76.5 311.5t216.5 210.5t325 73t321.5 -72t209 -207t72.5 -308 q0 -192 -82.5 -340.5t-247.5 -252.5zM669 144zM669 0zM803 1675l152 -28q-12 -45 -12 -100q0 -98 54 -147.5t157 -49.5t157 49.5t54 147.5q0 55 -12 100l152 28q20 -71 20 -135q0 -152 -99 -240.5t-272 -88.5t-272 88.5t-99 240.5q0 71 20 135zM1141 1727zM1172 1134z"/>
    <glyph glyph-name="uni0D32_uni0D4D" horiz-adv-x="1759" d="M307 454v-310h1130v990h177v-1134h-1484v641q0 193 59 301.5t168.5 164t266.5 55.5q246 0 369 -126t123 -377v-205h-809zM307 598h632v57q0 192 -74.5 277.5t-242.5 85.5q-166 0 -240.5 -86t-74.5 -274v-60zM1181 1675l152 -28q-12 -45 -12 -100q0 -98 54 -147.5 t157 -49.5t157 49.5t54 147.5q0 55 -12 100l152 28q20 -71 20 -135q0 -152 -99 -240.5t-272 -88.5t-272 88.5t-99 240.5q0 71 20 135zM1519 1727zM1550 1134z"/>
    <glyph glyph-name="uni0D33_uni0D4D" horiz-adv-x="1466" d="M270 794q97 58 200 58q143 0 224 -82.5t81 -216.5q0 -140 -91.5 -228.5t-252.5 -88.5t-255.5 106t-94.5 295q0 146 86 267t247.5 189.5t376.5 68.5q274 0 426 -89.5t152 -248.5q0 -88 -47 -152.5t-140 -104.5q105 -34 157.5 -100t52.5 -165q0 -61 -25 -122t-79.5 -103.5 t-122 -59.5t-173.5 -17h-457q-116 0 -164 -14t-70.5 -42.5t-22.5 -69.5q0 -72 54 -105t198 -33h825v-148h-832q-219 0 -320.5 74t-101.5 198q0 79 32.5 141t115 102.5t238.5 40.5h456q101 0 153.5 13t85.5 49.5t33 108.5q0 81 -64 128t-181 47h-62v144h13q84 0 129 11.5 t78 36.5t48.5 58t15.5 76q0 95 -106.5 148.5t-303.5 53.5q-182 0 -314 -57t-198 -167zM235 620q2 -122 50.5 -183t143.5 -61q83 0 129.5 48.5t46.5 127.5q0 78 -43.5 121.5t-123.5 43.5q-111 0 -203 -97zM722 -690zM888 1675l152 -28q-12 -45 -12 -100q0 -98 54 -147.5 t157 -49.5t157 49.5t54 147.5q0 55 -12 100l152 28q20 -71 20 -135q0 -152 -99 -240.5t-272 -88.5t-272 88.5t-99 240.5q0 71 20 135zM1226 1727zM1257 1134z"/>
    <glyph glyph-name="uni0D34_uni0D4D" horiz-adv-x="1340" d="M884 328q7 -40 7 -77q0 -129 -84.5 -202t-248.5 -73q-186 0 -329 80l64 136q125 -70 261 -70q83 0 125 30.5t42 105.5q0 22 -3 50h-42q-286 0 -443.5 137.5t-157.5 376.5q0 174 111 340l137 -76q-37 -66 -54 -123.5t-17 -126.5q0 -185 107 -284.5t312 -102.5 q-20 42 -43 83q-43 76 -66 146.5t-23 149.5q0 149 97.5 241.5t266.5 92.5q171 0 266.5 -102.5t95.5 -257.5q0 -169 -102 -299t-279 -175zM836 464q118 34 185 128t67 222q0 96 -48.5 151t-140.5 55q-89 0 -138.5 -52t-49.5 -143q0 -71 22 -138.5t61 -139.5q22 -41 42 -83z M431 1134zM429 991zM762 1675l152 -28q-12 -45 -12 -100q0 -98 54 -147.5t157 -49.5t157 49.5t54 147.5q0 55 -12 100l152 28q20 -71 20 -135q0 -152 -99 -240.5t-272 -88.5t-272 88.5t-99 240.5q0 71 20 135zM1100 1727zM1131 1134z"/>
    <glyph glyph-name="uni0D35_uni0D4D" horiz-adv-x="1963" d="M887 121q116 79 174 187.5t58 245.5q0 210 -115 335t-314 125q-127 0 -225 -57.5t-150.5 -163t-52.5 -234.5q0 -148 62 -260t187 -188l-101 -129q-157 89 -243.5 241.5t-86.5 343.5q0 174 76.5 311.5t216.5 210.5t325 73t321.5 -72t209 -207t72.5 -308q0 -121 -38 -224.5 t-125 -206.5h501v991h179v-1135h-861zM1385 1675l152 -28q-12 -45 -12 -100q0 -98 54 -147.5t157 -49.5t157 49.5t54 147.5q0 55 -12 100l152 28q20 -71 20 -135q0 -152 -99 -240.5t-272 -88.5t-272 88.5t-99 240.5q0 71 20 135zM1723 1727zM1754 1134z"/>
    <glyph glyph-name="uni0D36_uni0D4D" horiz-adv-x="2130" d="M1852 728q-49 130 -169 208t-271 78q-203 0 -303.5 -107.5t-100.5 -367.5v-35q0 -152 -25.5 -242.5t-84 -156t-138.5 -97t-191 -31.5q-227 0 -358 149.5t-131 411.5q0 197 76.5 346t240.5 278l110 -127q-247 -177 -247 -492q0 -189 83.5 -303.5t217.5 -114.5 q141 0 204 82.5t63 335.5v30q0 196 58 318t186 196.5t329 74.5q198 0 345 -81t225.5 -233t78.5 -353q0 -253 -113.5 -386t-320.5 -133q-182 0 -290 120t-108 306q0 193 105 309t280 116q140 0 249 -99zM1877 561q-47 60 -108.5 91.5t-130.5 31.5q-120 0 -183.5 -72.5 t-63.5 -205.5q0 -140 57.5 -213t167.5 -73q134 0 199 96.5t65 291.5q0 16 -3 53zM661 1134zM661 990zM1552 1675l152 -28q-12 -45 -12 -100q0 -98 54 -147.5t157 -49.5t157 49.5t54 147.5q0 55 -12 100l152 28q20 -71 20 -135q0 -152 -99 -240.5t-272 -88.5t-272 88.5 t-99 240.5q0 71 20 135zM1890 1727zM1921 1134z"/>
    <glyph glyph-name="uni0D37_uni0D4D" horiz-adv-x="2354" d="M1525 636q148 33 271.5 150t238.5 348h174v-1134h-1537l-59 107q89 83 89 216q0 113 -60.5 177t-171.5 64q-104 0 -168 -65.5t-64 -163.5q0 -150 120 -230l-93 -119q-99 68 -149.5 158t-50.5 195q0 163 112 266t293 103q120 0 212 -45.5t142 -128.5t50 -180 q0 -131 -63 -210h537v337q-223 4 -343 106t-120 266q0 128 88.5 218.5t234.5 90.5q113 0 185 -45t102 -119t30 -208v-154zM1348 622v158q0 89 -12 137t-48 74.5t-88 26.5q-64 0 -101 -42.5t-37 -119.5q0 -113 72.5 -173.5t213.5 -60.5zM2039 888q-72 -162 -208.5 -268 t-305.5 -131v-345h507v619q0 77 7 125zM1776 1675l152 -28q-12 -45 -12 -100q0 -98 54 -147.5t157 -49.5t157 49.5t54 147.5q0 55 -12 100l152 28q20 -71 20 -135q0 -152 -99 -240.5t-272 -88.5t-272 88.5t-99 240.5q0 71 20 135zM2114 1727zM2145 1134z"/>
    <glyph glyph-name="uni0D38_uni0D4D" horiz-adv-x="2505" d="M1678 552q0 -160 19.5 -245.5t79.5 -134t160 -48.5q138 0 223 113.5t85 306.5q0 153 -62.5 278t-182.5 210l122 130q162 -130 232.5 -278t70.5 -340q0 -262 -136 -415t-365 -153q-106 0 -189 33t-138.5 100.5t-76.5 162.5t-21 260v73q0 174 -22.5 251.5t-76 118 t-140.5 40.5q-83 0 -140 -44.5t-78 -122.5t-21 -215v-633h-177v597q0 155 -20 234.5t-82.5 131.5t-159.5 52q-89 0 -162.5 -52t-116.5 -149.5t-43 -216.5q0 -315 245 -485l-117 -130q-162 128 -235 275.5t-73 339.5q0 162 63 292t179 201.5t268 71.5q111 0 194 -43t150 -144 q113 187 350 187q125 0 212 -55.5t134.5 -158.5t47.5 -328v-68zM1861 1134zM1861 990zM669 144zM1927 1675l152 -28q-12 -45 -12 -100q0 -98 54 -147.5t157 -49.5t157 49.5t54 147.5q0 55 -12 100l152 28q20 -71 20 -135q0 -152 -99 -240.5t-272 -88.5t-272 88.5t-99 240.5 q0 71 20 135zM2265 1727zM2296 1134z"/>
    <glyph glyph-name="uni0D39_uni0D4D" horiz-adv-x="2437" d="M1926 111q120 73 184.5 187t64.5 256q0 209 -114.5 334.5t-312.5 125.5q-129 0 -227 -58t-150.5 -163t-52.5 -234q0 -146 57 -252.5t175 -186.5l-77 -120h-801l-59 107q89 83 89 216q0 113 -60.5 177t-171.5 64q-104 0 -168 -65.5t-64 -163.5q0 -150 120 -230l-93 -119 q-99 68 -149.5 158t-50.5 195q0 163 112 266t293 103q120 0 212 -45.5t142 -128.5t50 -180q0 -131 -63 -210h487q-162 186 -162 431q0 170 77 306t217 208.5t324 72.5q185 0 321.5 -72t209 -207t72.5 -308q0 -192 -82.5 -340.5t-247.5 -252.5zM1859 1675l152 -28 q-12 -45 -12 -100q0 -98 54 -147.5t157 -49.5t157 49.5t54 147.5q0 55 -12 100l152 28q20 -71 20 -135q0 -152 -99 -240.5t-272 -88.5t-272 88.5t-99 240.5q0 71 20 135zM2197 1727zM2228 1134z"/>
    <glyph glyph-name="uni0D15_uni0D4D_uni0D37_uni0D4D" horiz-adv-x="3474" d="M776 74q-85 -53 -163 -75.5t-170 -22.5q-181 0 -279.5 88t-98.5 247q0 80 33 147.5t97.5 113.5t151.5 70t248 29q24 233 151.5 362t325.5 129q203 0 326.5 -127t148.5 -363q268 -3 385.5 -93.5t117.5 -250.5q0 -106 -76 -184h494v337q-223 4 -343 106t-120 266 q0 128 88.5 218.5t234.5 90.5q113 0 185 -45t102 -119t30 -208v-154q148 33 271.5 150t238.5 348h174v-1134h-1609l-35 138q188 22 188 185q0 207 -323 205q-11 -266 -136.5 -409t-339.5 -143q-180 0 -298 98zM772 672h598q-17 173 -91.5 259.5t-206.5 86.5 q-135 0 -210 -86.5t-90 -259.5zM2468 622v158q0 89 -12 137t-48 74.5t-88 26.5q-64 0 -101 -42.5t-37 -119.5q0 -113 72.5 -173.5t213.5 -60.5zM3159 888q-72 -162 -208.5 -268t-305.5 -131v-345h507v619q0 77 7 125zM1373 528h-605q6 -204 81 -306t220 -102t221 102t83 306 zM679 188q-40 67 -62 152t-26 187q-183 -2 -266 -54.5t-83 -154.5q0 -96 53.5 -147t153.5 -51q123 0 230 68zM2896 1675l152 -28q-12 -45 -12 -100q0 -98 54 -147.5t157 -49.5t157 49.5t54 147.5q0 55 -12 100l152 28q20 -71 20 -135q0 -152 -99 -240.5t-272 -88.5 t-272 88.5t-99 240.5q0 71 20 135zM3234 1727zM3265 1134z"/>
    <glyph glyph-name="_143" horiz-adv-x="0" d="M-1291 -224q87 51 172 51q117 0 184 -70.5t67 -186.5q0 -120 -75 -190t-208 -70q-138 0 -218 98t-80 267q0 189 123.5 308.5t315.5 119.5q145 0 232.5 -45t132.5 -130t45 -225v-13q0 -143 44.5 -193t124.5 -50q84 0 127.5 53.5t43.5 157.5q0 195 -157 355l119 86 q199 -193 199 -437q0 -159 -87 -255.5t-240 -96.5q-163 0 -249.5 92t-86.5 275v9q0 158 -61 224t-190 66q-106 0 -180 -52.5t-98 -147.5zM-1302 -351q3 -106 43.5 -162t110.5 -56q135 0 135 140q0 62 -35.5 98t-95.5 36q-80 0 -158 -56zM-583 0zM-583 144z"/>
    <glyph glyph-name="uni0D4D_uni0D2F" horiz-adv-x="497" d="M-109 -137q-6 -30 -6 -63q0 -102 53 -155.5t154 -53.5q106 0 159 54t53 161q0 70 -20.5 142t-86.5 233q-62 150 -83.5 247t-21.5 186q0 119 39 255.5t113 264.5h187q-82 -137 -120.5 -256t-38.5 -254q0 -79 18 -167t79 -240q49 -123 69 -181.5t32 -118.5t12 -114 q0 -169 -104 -262.5t-286 -93.5q-179 0 -283 96.5t-104 257.5q0 38 6 77zM142 -690zM120 0z"/>
    <glyph glyph-name="uni0D4D_uni0D35" horiz-adv-x="467" d="M322 1134v-1460h-701v146h524v1314h177zM142 -690zM120 0z"/>
    <glyph glyph-name="uni0D4D_uni0D30" horiz-adv-x="499" d="M515 1134q-246 -531 -246 -990q0 -195 67 -284t223 -89q56 0 124 11l18 -149q-80 -12 -181 -12q-212 0 -321 131.5t-109 386.5q0 221 57 463.5t181 531.5h187zM442 -690zM420 0z"/>
    <glyph glyph-name="uni0D15_uni0D4D_uni0D15" horiz-adv-x="3085" d="M776 74q-85 -53 -163 -75.5t-170 -22.5q-181 0 -279.5 88t-98.5 247q0 80 33 147.5t97.5 113.5t151.5 70t248 29q24 233 151.5 362t325.5 129q202 0 326 -126.5t148 -363.5h184q63 235 237 362.5t419 127.5q292 0 455.5 -159.5t163.5 -427.5q0 -384 -330 -593l-101 129 q120 73 184.5 187t64.5 256q0 212 -120.5 336t-325.5 124q-161 0 -288 -90.5t-185 -251.5h64q171 0 273.5 -37t158.5 -117.5t56 -208.5q0 -155 -95 -244t-263 -89q-185 0 -291.5 115.5t-106.5 326.5q0 56 5 110h-155q-11 -266 -136.5 -409t-339.5 -143q-180 0 -298 98z M772 672h598q-17 173 -91.5 259.5t-206.5 86.5q-135 0 -210 -86.5t-90 -259.5zM1373 528h-605q6 -204 81 -306t220 -102t221 102t83 306zM1873 528q-7 -50 -7 -106q0 -311 235 -311q89 0 136.5 50t47.5 143q0 86 -35.5 133t-103.5 69t-208 22h-65zM679 188q-40 67 -62 152 t-26 187q-183 -2 -266 -54.5t-83 -154.5q0 -96 53.5 -147t153.5 -51q123 0 230 68zM2529 144zM2529 0z"/>
    <glyph glyph-name="uni0D15_uni0D4D_uni0D24" horiz-adv-x="3707" d="M1817 333q0 43 -9 82t-32 64t-58.5 37t-108.5 12h-60q-12 -267 -137.5 -409.5t-338.5 -142.5q-180 0 -298 98q-79 -50 -158.5 -74t-173.5 -24q-181 0 -279.5 88t-98.5 247q0 84 36 154t106.5 116t156.5 65.5t230 24.5q25 233 152 362t325 129q203 0 326.5 -126.5 t147.5 -363.5h101q111 0 171 -53q3 181 60 293.5t180 181t308 68.5q92 0 166.5 -15.5t150.5 -51.5q77 34 156.5 50.5t180.5 16.5q187 0 324.5 -72.5t210.5 -207t73 -307.5q0 -384 -330 -593l-101 129q123 75 186 187.5t63 255.5q0 135 -54 243t-155 166t-237 58 q-113 0 -184 -20q131 -99 201 -242t70 -311q0 -223 -109.5 -347.5t-307.5 -124.5q-197 0 -307.5 125t-110.5 347q0 170 75 312.5t219 241.5q-64 19 -156 19q-157 0 -238.5 -54.5t-119 -141.5t-37.5 -277v-548h-177v333zM770 672h598q-16 173 -90.5 259.5t-206.5 86.5 q-134 0 -209.5 -86.5t-91.5 -259.5zM2679 937q-115 -73 -181.5 -201t-66.5 -283q0 -166 60.5 -249.5t177.5 -83.5q237 0 237 333q0 151 -59.5 280.5t-167.5 203.5zM1372 528h-606q6 -204 81.5 -306t220.5 -102q146 0 221 101.5t83 306.5zM678 187q-41 69 -63 154t-25 186 q-184 -3 -266 -55.5t-82 -153.5q0 -96 53.5 -147t153.5 -51q121 0 229 67zM3139 144z"/>
    <glyph glyph-name="uni0D15_uni200D_uni0D4D_uni0D1F" horiz-adv-x="2125" d="M776 74q-85 -53 -163 -75.5t-170 -22.5q-181 0 -279.5 88t-98.5 247q0 80 33 147.5t97.5 113.5t151.5 70t248 29q24 233 151.5 362t325.5 129q203 0 326.5 -126.5t148.5 -364.5q268 -5 390.5 -99t122.5 -261q0 -100 -36 -170t-108 -109l-64 -115q-155 83 -346 83 q-114 0 -172 -27.5t-58 -77.5q0 -56 53 -77t172 -21h64q179 0 260.5 -60t81.5 -180q0 -115 -100 -181t-285 -66q-126 0 -227.5 23t-198.5 74l64 130q161 -89 359 -89q229 0 229 108q0 57 -51 81.5t-152 24.5h-51q-211 0 -294.5 58t-83.5 169q0 49 27 92q-34 -5 -69 -5 q-180 0 -298 98zM772 672h598q-17 173 -91.5 259.5t-206.5 86.5q-135 0 -210 -86.5t-90 -259.5zM1373 528h-605q6 -204 81 -306t220 -102t221 102t83 306zM679 188q-40 67 -62 152t-26 187q-183 -2 -266 -54.5t-83 -154.5q0 -96 53.5 -147t153.5 -51q123 0 230 68zM1533 125 l4 14q66 -19 140 -19q103 0 154.5 47t51.5 142q0 104 -80 158t-253 60q-12 -272 -138 -406q39 5 82 5q19 0 39 -1zM2016 0z"/>
    <glyph glyph-name="uni0D15_uni0D4D_uni0D32" horiz-adv-x="2125" d="M754 -226q87 53 174 53q117 0 184 -70.5t67 -186.5q0 -120 -75.5 -190t-209.5 -70q-137 0 -216.5 98.5t-79.5 266.5q0 126 56.5 223t164.5 151q-16 9 -40 27q-84 -53 -163.5 -76.5t-172.5 -23.5q-181 0 -279.5 88t-98.5 247q0 85 37 155.5t110 117t159.5 65t223.5 22.5 q25 233 152 362t325 129q204 0 327.5 -127.5t146.5 -363.5q267 -4 390.5 -98t123.5 -262q0 -97 -34.5 -167t-102.5 -114q127 -141 127 -334q0 -176 -102 -281t-279 -105q-132 0 -210.5 50t-111 129t-32.5 197v2q0 164 -64.5 233t-198.5 69q-117 0 -196 -57t-102 -159z M771 672h598q-32 346 -297 346q-268 0 -301 -346zM1373 528h-606q6 -204 81.5 -306t220.5 -102q146 0 221 101.5t83 306.5zM678 187q-40 67 -62 152t-25 188q-185 -3 -267 -55.5t-82 -153.5q0 -96 53.5 -147t153.5 -51q121 0 229 67zM1766 -20q-23 -4 -63 -4q-125 0 -206 25 l40 138q72 -19 140 -19q206 0 206 189q0 105 -81 158.5t-252 58.5q-14 -359 -236 -479q73 -39 118 -118t45 -226v-8q0 -83 15 -134.5t60 -82.5t117 -31q101 0 161 64t60 176q0 175 -124 293zM745 -351q2 -105 42.5 -161.5t111.5 -56.5q135 0 135 140q0 62 -35.5 98t-95.5 36 q-82 0 -158 -56zM1459 127zM170 0z"/>
    <glyph glyph-name="uni0D15_uni0D4D_uni0D37" horiz-adv-x="3474" d="M776 74q-85 -53 -163 -75.5t-170 -22.5q-181 0 -279.5 88t-98.5 247q0 80 33 147.5t97.5 113.5t151.5 70t248 29q24 233 151.5 362t325.5 129q203 0 326.5 -127t148.5 -363q268 -3 385.5 -93.5t117.5 -250.5q0 -106 -76 -184h494v337q-223 4 -343 106t-120 266 q0 128 88.5 218.5t234.5 90.5q113 0 185 -45t102 -119t30 -208v-154q148 33 271.5 150t238.5 348h174v-1134h-1609l-35 138q188 22 188 185q0 207 -323 205q-11 -266 -136.5 -409t-339.5 -143q-180 0 -298 98zM772 672h598q-17 173 -91.5 259.5t-206.5 86.5 q-135 0 -210 -86.5t-90 -259.5zM2468 622v158q0 89 -12 137t-48 74.5t-88 26.5q-64 0 -101 -42.5t-37 -119.5q0 -113 72.5 -173.5t213.5 -60.5zM3159 888q-72 -162 -208.5 -268t-305.5 -131v-345h507v619q0 77 7 125zM1373 528h-605q6 -204 81 -306t220 -102t221 102t83 306 zM679 188q-40 67 -62 152t-26 187q-183 -2 -266 -54.5t-83 -154.5q0 -96 53.5 -147t153.5 -51q123 0 230 68z"/>
    <glyph glyph-name="uni0D17_uni0D4D_uni0D17" horiz-adv-x="1837" d="M828 641q0 194 44 295t139 163.5t262 62.5q219 0 351.5 -154t132.5 -408q0 -157 -51 -285t-164 -241q73 -52 112.5 -138t39.5 -198q0 -125 -50 -229t-161 -199l-103 105q154 130 154 334q0 116 -59 184t-160 68q-93 0 -143 -52.5t-50 -197.5v-13q0 -178 -43.5 -261 t-124 -125t-188.5 -42q-176 0 -277 105t-101 281q0 163 89 288q-189 31 -293 177t-104 377q0 197 76.5 346t240.5 278l110 -127q-247 -177 -247 -492q0 -190 82.5 -304t218.5 -114q89 0 139.5 28t79 79.5t38.5 136t10 245.5v27zM960 -283q0 177 45.5 258.5t125.5 122 t195 40.5q19 0 39 -2q106 87 159 201.5t53 256.5q0 189 -83.5 304.5t-223.5 115.5q-106 0 -167 -55t-78 -151.5t-17 -291.5v-18q0 -170 -35 -266.5t-109 -161t-186 -84.5q-130 -119 -130 -299q0 -112 60 -176t160 -64q90 0 141 51.5t51 201.5v17zM569 -23zM1115 1zM661 1134 zM661 990z"/>
    <glyph glyph-name="uni0D17_uni200D_uni0D4D_uni0D26" horiz-adv-x="1907" d="M397 1162l110 -127q-247 -177 -247 -492q0 -191 82.5 -304.5t218.5 -113.5q112 0 170 47.5t77.5 136t19.5 271.5v13q0 185 57.5 305.5t178 192t315.5 71.5q204 0 318 -88t114 -233q0 -98 -47.5 -164.5t-147.5 -109.5q106 -37 161.5 -109t55.5 -166q0 -149 -96.5 -232 t-269.5 -83q-98 0 -202 23l37 141q81 -20 145 -20q107 0 158 43t51 131q0 59 -32 103t-89.5 68t-180.5 24h-54v144h53q147 0 214 49.5t67 142.5q0 91 -65 139.5t-188 48.5q-126 0 -210 -50t-123.5 -148.5t-39.5 -276.5v-41q0 -219 -61 -324.5t-153.5 -151t-224.5 -45.5 q-227 0 -358 149.5t-131 411.5q0 197 76.5 346t240.5 278zM661 1134zM661 990z"/>
    <glyph glyph-name="uni0D17_uni0D4D_uni0D2E" horiz-adv-x="2876" d="M2751 0h-1235v652q0 137 -23.5 209.5t-78.5 112.5t-146 40q-105 0 -164.5 -53.5t-77.5 -148.5t-18 -296v-18q0 -219 -61 -324.5t-153.5 -151t-224.5 -45.5q-227 0 -358 149.5t-131 411.5q0 197 76.5 346t240.5 278l110 -127q-247 -177 -247 -492q0 -191 82.5 -304.5 t218.5 -113.5q115 0 173 50.5t76 143t18 295.5v27q0 211 53 313t147 155t243 53q121 0 213 -57.5t146 -167.5q74 112 196 168.5t292 56.5q193 0 334 -62.5t220 -191.5t79 -363v-545zM1693 139h10q229 172 354.5 350.5t125.5 333.5q0 91 -41.5 141.5t-120.5 50.5 q-140 0 -234 -123t-94 -383v-370zM2574 509q0 248 -76 355t-208 141q38 -47 53.5 -94.5t15.5 -106.5q0 -156 -97.5 -316t-307.5 -350q89 6 176 6h444v365zM661 1134zM661 990z"/>
    <glyph glyph-name="uni0D17_uni0D4D_uni0D28" horiz-adv-x="2537" d="M828 641q0 211 53 313t147 155t243 53q110 0 193.5 -45.5t141.5 -136.5q60 93 145.5 137.5t210.5 44.5q149 0 261.5 -72t173 -201.5t60.5 -290.5q0 -190 -75.5 -337.5t-241.5 -277.5l-110 126q125 88 186 209t61 280q0 181 -88.5 298.5t-228.5 117.5q-72 0 -122.5 -22.5 t-85.5 -72t-47 -114.5t-12 -208v-597h-177v652q0 137 -23.5 209.5t-78.5 112.5t-146 40q-105 0 -164.5 -53.5t-77.5 -148.5t-18 -296v-18q0 -219 -61 -324.5t-153.5 -151t-224.5 -45.5q-227 0 -358 149.5t-131 411.5q0 197 76.5 346t240.5 278l110 -127q-247 -177 -247 -492 q0 -191 82.5 -304.5t218.5 -113.5q115 0 173 50.5t76 143t18 295.5v27zM1869 144zM661 1134zM661 990z"/>
    <glyph glyph-name="uni0D17_uni0D4D_uni0D32" horiz-adv-x="1837" d="M828 640q0 194 44 295t139 163.5t262 62.5q219 0 351.5 -154t132.5 -408q0 -153 -48.5 -279.5t-158.5 -238.5q88 -80 132.5 -176t44.5 -209q0 -175 -102 -280.5t-279 -105.5q-133 0 -211.5 50.5t-110.5 129.5t-32 196v2q0 166 -63 239t-210 73q-107 0 -184 -59t-102 -166 q84 52 172 52q117 0 184 -70.5t67 -186.5q0 -120 -75.5 -190t-209.5 -70q-137 0 -216.5 98.5t-79.5 266.5q0 101 37 187.5t103 147.5q-160 45 -247.5 181.5t-87.5 345.5q0 197 76.5 346t240.5 278l110 -127q-247 -177 -247 -492q0 -190 82.5 -304t218.5 -114q89 0 139.5 28 t79 79.5t38.5 136t10 245.5v27zM1440 -17v-1l-110 126q247 177 247 485q0 189 -83.5 304.5t-223.5 115.5q-106 0 -167 -55t-78 -151.5t-17 -291.5v-18q0 -139 -28 -231t-91 -156q122 -28 193.5 -124t71.5 -283v-7q0 -84 15 -135.5t60 -82.5t117 -31q101 0 161 64t60 176 q0 174 -127 296zM422 -351q2 -105 42.5 -161.5t111.5 -56.5q135 0 135 140q0 62 -35.5 98t-95.5 36q-82 0 -158 -56zM529 -23zM1109 137zM1169 0zM621 1134zM621 990zM1174 144z"/>
    <glyph glyph-name="uni0D19_uni0D4D_uni0D15" horiz-adv-x="2169" d="M819 75q-81 -49 -164.5 -74t-185.5 -25q-189 0 -292 87.5t-103 247.5q0 194 228 282q-218 75 -218 272q0 128 101 212.5t265 84.5q98 0 179 -28t170 -95q63 61 142.5 92t174.5 31q203 0 326.5 -126.5t148.5 -364.5q268 -5 390.5 -99t122.5 -261q0 -156 -100 -245.5 t-272 -89.5q-111 0 -191 25l40 138q72 -19 125 -19q107 0 164 49t57 140q0 104 -80 158t-253 60q-12 -267 -137.5 -409t-338.5 -142q-91 0 -165.5 24.5t-133.5 74.5zM816 672h598q-17 173 -91.5 259.5t-206.5 86.5q-135 0 -210 -86.5t-90 -259.5zM639 672q7 68 24.5 128 t44.5 112q-66 57 -126 81.5t-128 24.5q-90 0 -143.5 -44.5t-53.5 -116.5q0 -89 66 -137t256 -48h60zM1417 528h-605q6 -204 81 -306t220 -102t221 102t83 306zM722 189q-40 67 -61.5 152t-25.5 187q-126 -3 -192.5 -16.5t-110 -43t-62.5 -65.5t-19 -85q0 -96 57.5 -147 t164.5 -51q133 0 249 69z"/>
    <glyph glyph-name="uni0D19_uni0D4D_uni0D19" horiz-adv-x="3128" d="M2260 0h-177v577q0 164 -33 251t-116.5 141t-245.5 54q-43 0 -82 -4q96 -42 144 -108.5t48 -156.5q0 -83 -42 -137.5t-127 -92.5q92 -32 141.5 -96t49.5 -149q0 -138 -100.5 -220.5t-285.5 -82.5q-218 0 -341 138t-123 367q0 164 64.5 295.5t193.5 229.5q-104 12 -243 12 q-297 0 -485.5 -109.5t-238.5 -309.5q116 73 243 73q152 0 242 -89.5t90 -245.5q0 -166 -94.5 -263.5t-255.5 -97.5q-180 0 -293 134t-113 374q0 324 241 501t659 177q131 0 229.5 -14t192.5 -43q140 57 311 57q153 0 266 -49.5t198 -161.5q74 105 185 158t258 53 q189 0 300.5 -90.5t111.5 -231.5q0 -98 -48.5 -165t-146.5 -109q106 -37 161.5 -109t55.5 -166q0 -149 -96.5 -232t-269.5 -83q-98 0 -202 23l37 141q81 -20 145 -20q107 0 158 43t51 131q0 59 -32 103t-89.5 68t-180.5 24h-54v144h53q151 0 216 50.5t65 141.5 q0 92 -64 142.5t-181 50.5q-130 0 -210.5 -57t-110 -139.5t-29.5 -236.5v-585zM1422 969q-136 -67 -208 -201.5t-72 -278.5q0 -180 77.5 -278t218.5 -98q210 0 210 170q0 79 -62 121t-179 42h-39v144h29q229 0 229 165q0 77 -51 130.5t-153 83.5zM247 437 q6 -151 72.5 -234.5t171.5 -83.5q80 0 127 54t47 150q0 95 -50.5 150.5t-139.5 55.5q-119 0 -228 -92z"/>
    <glyph glyph-name="uni0D1A_uni0D4D_uni0D1A" horiz-adv-x="1911" d="M726 -553l-77 141l393 285q81 58 203 131q-82 -4 -216 -4h-994v144h802q94 87 94 217q0 113 -55 177.5t-157 64.5q-100 0 -156.5 -59.5t-56.5 -165.5q0 -51 5 -79l-170 -23q-11 60 -11 122q0 158 108.5 253.5t285.5 95.5q179 0 279 -102t100 -266q0 -134 -81 -235h565 v990h179v-1687h-1040zM1587 -412v412h-111l-584 -416l1 -4q90 8 262 8h432zM872 -690z"/>
    <glyph glyph-name="uni0D1A_uni0D4D_uni0D1B" horiz-adv-x="1911" d="M1766 0q-53 0 -100 3q74 -62 111 -148t37 -197q0 -167 -84.5 -257.5t-229.5 -90.5q-129 0 -206.5 79.5t-77.5 199.5q0 126 72 202.5t193 76.5q96 0 166 -62q-31 93 -112 143.5t-194 50.5q-147 0 -233 -76.5t-86 -210.5q0 -78 29.5 -141.5t117.5 -143.5l-62 -118h-1067 v137h485q60 44 60 124q0 59 -34 93t-92 34q-54 0 -82 -30t-28 -82q0 -23 -2 -38l-137 -15q-7 39 -7 76q0 97 73 155.5t195 58.5t189.5 -63.5t67.5 -161.5q0 -87 -49 -151h289q-102 129 -102 287q0 77 32.5 147.5t97.5 122.5q-63 -4 -148 -4h-813v144h802q94 87 94 217 q0 113 -55 177.5t-157 64.5q-100 0 -156.5 -59.5t-56.5 -165.5q0 -51 5 -79l-170 -23q-11 60 -11 122q0 158 108.5 253.5t285.5 95.5q179 0 279 -102t100 -266q0 -134 -81 -235h565v990h179v-1134zM1666 -326q-59 69 -146 69q-77 0 -118 -39.5t-41 -111.5q0 -77 36 -117 t105 -40q84 0 124 57t40 176v6z"/>
    <glyph glyph-name="uni0D1C_uni0D4D_uni0D1C" horiz-adv-x="3881" d="M2047 741q-2 19 -2 40q0 105 62.5 192t184.5 138t287 51q140 0 237 -39t177 -126q67 82 159 123.5t210 41.5q133 0 232 -51t151.5 -142.5t52.5 -196.5q0 -119 -47 -196t-148 -130q140 -56 140 -210q0 -124 -78.5 -192t-221.5 -68q-142 0 -223 69.5t-85 192.5 q-126 -86 -350 -174t-422 -88q-148 0 -229 65t-81 190q0 56 26.5 109.5t105 95t238.5 41.5h705q183 0 281 23.5t155.5 86t57.5 178.5q0 107 -72.5 180.5t-207.5 73.5q-100 0 -160.5 -40.5t-80.5 -106.5t-20 -189v-152h-169v130q0 100 -17.5 164t-62 111t-108 68t-169.5 21 q-170 0 -265 -56q51 15 101 15q127 0 196 -65.5t69 -169.5q0 -113 -80.5 -185.5t-219.5 -72.5q-155 0 -237 85q-141 -226 -345 -371t-468.5 -205t-685.5 -60q-301 0 -423 72.5t-122 218.5q0 56 26.5 109.5t105 95t238.5 41.5h725q189 0 286.5 24.5t152.5 87.5t55 176 q0 107 -72.5 180.5t-207.5 73.5q-100 0 -160.5 -40.5t-80.5 -106.5t-20 -189v-152h-169v130q0 100 -17.5 164t-62 111t-108 68t-169.5 21q-170 0 -265 -56q51 15 101 15q127 0 196 -65.5t69 -169.5q0 -113 -80.5 -185.5t-219.5 -72.5q-146 0 -228.5 77t-82.5 213 q0 105 62.5 192t184.5 138t287 51q140 0 237 -39t177 -126q67 82 159 123.5t210 41.5q133 0 232 -51t151.5 -142.5t52.5 -196.5q0 -154 -77.5 -254t-214 -140.5t-363.5 -40.5h-691q-96 0 -147.5 -8.5t-77 -34t-25.5 -61.5q0 -70 70 -105.5t303 -35.5h15q402 0 633.5 54 t417 182.5t364.5 412.5zM2201 847q-13 -35 -13 -67q0 -82 42 -124t123 -42q72 0 109.5 37t37.5 101q0 62 -38 96.5t-116 34.5q-74 0 -145 -36zM243 847q-13 -35 -13 -67q0 -82 42 -124t123 -42q72 0 109.5 37t37.5 101q0 62 -38 96.5t-116 34.5q-74 0 -145 -36zM3286 324 q-9 -36 -9 -73q0 -72 42.5 -110t120.5 -38q71 0 109 36t38 96q0 66 -41 100.5t-111 34.5q-80 0 -149 -46zM3117 355q-109 -15 -261 -15h-384q-107 0 -154 -9.5t-71.5 -35t-24.5 -67.5q0 -112 151 -112q74 0 161 18.5t164 48t289 121.5q64 28 130 51z"/>
    <glyph glyph-name="uni0D1C_uni0D4D_uni0D1E" horiz-adv-x="4858" d="M1982 477v17q0 201 81 352.5t230.5 233.5t337.5 82q148 0 252.5 -46.5t190.5 -152.5q72 99 182.5 149t259.5 50q180 0 317 -66q146 66 337 66q186 0 323.5 -72.5t211 -207t73.5 -307.5q0 -384 -330 -593l-101 129q123 75 186 187.5t63 255.5q0 135 -54 243t-155 166 t-237 58q-108 0 -183 -20q129 -98 199.5 -241.5t70.5 -311.5q0 -223 -109.5 -347.5t-307.5 -124.5q-197 0 -307.5 125t-110.5 347q0 171 75.5 313t218.5 241q-65 19 -156 19q-157 0 -238.5 -54.5t-119 -141.5t-37.5 -277v-548h-177v627q0 165 -40 240.5t-114 111.5t-186 36 q-185 0 -312.5 -113t-159.5 -308q118 78 248 78q152 0 243 -89.5t91 -245.5q0 -166 -94.5 -263.5t-255.5 -97.5q-143 0 -245.5 84.5t-139.5 242.5q-120 -115 -305 -200.5t-433 -124t-645 -38.5q-301 0 -423 72.5t-122 218.5q0 56 26.5 109.5t105 95t238.5 41.5h725 q183 0 281 23.5t155.5 86t57.5 178.5q0 107 -72.5 180.5t-207.5 73.5q-100 0 -160.5 -40.5t-80.5 -106.5t-20 -189v-152h-169v130q0 100 -17.5 164t-62 111t-108 68t-169.5 21q-170 0 -265 -56q51 15 101 15q127 0 196 -65.5t69 -169.5q0 -113 -80.5 -185.5t-219.5 -72.5 q-146 0 -228.5 77t-82.5 213q0 105 62.5 192t184.5 138t287 51q140 0 237 -39t177 -126q67 82 159 123.5t210 41.5q133 0 232 -51t151.5 -142.5t52.5 -196.5q0 -154 -77.5 -254t-214 -140.5t-363.5 -40.5h-691q-97 0 -148.5 -9t-76.5 -33t-25 -60q0 -73 73 -108t300 -35h15 q400 0 639.5 40.5t406.5 127t304 217.5zM3830 937q-115 -73 -181.5 -201t-66.5 -283q0 -166 60.5 -249.5t177.5 -83.5q237 0 237 333q0 151 -59.5 280.5t-167.5 203.5zM243 847q-13 -35 -13 -67q0 -82 42 -124t123 -42q72 0 109.5 37t37.5 101q0 62 -38 96.5t-116 34.5 q-74 0 -145 -36zM2149 436q5 -151 69 -234t174 -83q79 0 127 53t48 150t-52 152t-140 55q-116 0 -226 -93zM4269 144z"/>
    <glyph glyph-name="uni0D1E_uni0D4D_uni0D1A" horiz-adv-x="3352" d="M1510 144h808q95 87 143 199t48 240q0 196 -105 317t-280 121q-63 0 -113 -11q100 -78 151.5 -177.5t51.5 -209.5q0 -163 -96.5 -259.5t-252.5 -96.5q-157 0 -253 96.5t-96 259.5q0 106 55 208.5t158 180.5q-40 9 -108 9q-134 0 -211.5 -45.5t-119.5 -134.5t-42 -293 v-548h-177v627q0 165 -40 240.5t-114 111.5t-186 36q-185 0 -312.5 -113t-159.5 -308q118 78 248 78q152 0 243 -89.5t91 -245.5q0 -166 -94.5 -263.5t-255.5 -97.5q-119 0 -212.5 60.5t-143.5 178t-50 279.5q0 201 81 352.5t230.5 233.5t337.5 82q146 0 251.5 -46 t192.5 -154q71 100 176 150t244 50q160 0 276 -51q122 51 256 51q265 0 411.5 -156t146.5 -417q0 -128 -37.5 -236.5t-118.5 -208.5h496v990h179v-1134h-1698zM1870 955q-86 -55 -131.5 -139.5t-45.5 -185.5q0 -107 46 -163t126 -56q85 0 128.5 56t43.5 164q0 99 -43 184 t-124 140zM252 436q5 -151 69 -234t174 -83q79 0 127 53t48 150t-52 152t-140 55q-116 0 -226 -93z"/>
    <glyph glyph-name="uni0D1E_uni200D_uni0D4D_uni0D1B" horiz-adv-x="4387" d="M4105 732q-50 133 -176.5 207.5t-302.5 74.5q-226 0 -355 -121t-129 -334q0 -125 51 -231t177 -217l-73 -111h-1788l1 144h808q95 87 143 199t48 240q0 196 -105 317t-280 121q-63 0 -113 -11q100 -78 151.5 -177.5t51.5 -209.5q0 -163 -96.5 -259.5t-252.5 -96.5 q-157 0 -253 96.5t-96 259.5q0 106 55 208.5t158 180.5q-40 9 -108 9q-134 0 -211.5 -45.5t-119.5 -134.5t-42 -293v-548h-177v627q0 165 -40 240.5t-114 111.5t-186 36q-185 0 -312.5 -113t-159.5 -308q118 78 248 78q152 0 243 -89.5t91 -245.5q0 -166 -94.5 -263.5 t-255.5 -97.5q-119 0 -212.5 60.5t-143.5 178t-50 279.5q0 201 81 352.5t230.5 233.5t337.5 82q146 0 251.5 -46t192.5 -154q71 100 176 150t244 50q160 0 276 -51q122 51 256 51q265 0 411.5 -156t146.5 -417q0 -128 -37.5 -236.5t-118.5 -208.5h595q-84 97 -125.5 205 t-41.5 218q0 169 77.5 306.5t228.5 213t359 75.5q209 0 362.5 -78.5t236.5 -231t83 -357.5q0 -252 -114.5 -385.5t-319.5 -133.5q-182 0 -290 120t-108 306q0 193 105 309t280 116q138 0 245 -95zM1870 955q-86 -55 -131.5 -139.5t-45.5 -185.5q0 -107 46 -163t126 -56 q85 0 128.5 56t43.5 164q0 99 -43 184t-124 140zM4134 561q-47 60 -108.5 91.5t-130.5 31.5q-120 0 -183.5 -72.5t-63.5 -205.5q0 -140 57.5 -213t167.5 -73q134 0 199 96.5t65 291.5q0 16 -3 53zM252 436q5 -151 69 -234t174 -83q79 0 127 53t48 150t-52 152t-140 55 q-116 0 -226 -93z"/>
    <glyph glyph-name="uni0D1E_uni0D4D_uni0D1C" horiz-adv-x="3381" d="M1071 627q0 165 -40 240.5t-114 111.5t-186 36q-185 0 -312.5 -113t-159.5 -308q118 78 248 78q152 0 243 -89.5t91 -245.5q0 -166 -94.5 -263.5t-255.5 -97.5q-119 0 -212.5 60.5t-143.5 178t-50 279.5q0 201 81 352.5t230.5 233.5t337.5 82q148 0 252.5 -46.5 t190.5 -152.5q72 99 182.5 149t259.5 50q126 0 229 -42q110 42 237 42q132 0 229.5 -38t178.5 -127q67 82 159 123.5t210 41.5q133 0 232 -51t151.5 -142.5t52.5 -196.5q0 -119 -47 -196t-148 -130q140 -56 140 -210q0 -124 -78.5 -192t-221.5 -68q-142 0 -223 69.5 t-85 192.5q-126 -86 -350 -174t-422 -88q-156 0 -243 65t-87 190q0 56 26.5 109.5t105 95t238.5 41.5h725q183 0 281 23.5t155.5 86t57.5 178.5q0 107 -72.5 180.5t-207.5 73.5q-100 0 -160.5 -40.5t-80.5 -106.5t-20 -189v-152h-169v130q0 119 -23 184t-69 106.5t-107.5 59 t-139.5 17.5q-31 0 -66 -5q72 -48 111 -117t39 -150q0 -119 -81 -192t-223 -73q-141 0 -224 73t-83 197q0 150 142 258q-35 2 -57 2q-150 0 -231 -57t-116.5 -143.5t-35.5 -272.5v-548h-177v627zM1848 985q-70 -38 -107 -95t-37 -125q0 -151 149 -151q146 0 146 151 q0 146 -151 220zM252 436q5 -151 69 -234t174 -83q79 0 127 53t48 150t-52 152t-140 55q-116 0 -226 -93zM2786 323q-9 -31 -9 -70q0 -73 41.5 -111.5t121.5 -38.5q71 0 109 36t38 98q0 66 -41 99.5t-111 33.5q-79 0 -149 -47zM2616 355q-108 -15 -260 -15h-404 q-112 0 -157.5 -10t-69 -35t-23.5 -62q0 -117 161 -117q80 0 168 18t161 46t295 124q64 28 129 51z"/>
    <glyph glyph-name="uni0D1E_uni0D4D_uni0D1E" horiz-adv-x="4488" d="M1071 627q0 165 -40 240.5t-114 111.5t-186 36q-185 0 -312.5 -113t-159.5 -308q118 78 248 78q152 0 243 -89.5t91 -245.5q0 -166 -94.5 -263.5t-255.5 -97.5q-119 0 -212.5 60.5t-143.5 178t-50 279.5q0 201 81 352.5t230.5 233.5t337.5 82q148 0 252.5 -46.5 t190.5 -152.5q72 99 182.5 149t259.5 50q178 0 309 -62q138 62 305 62q157 0 271 -56t186 -167q71 111 185 167t271 56q180 0 317 -66q146 66 337 66q186 0 323.5 -72.5t211 -207t73.5 -307.5q0 -384 -330 -593l-101 129q123 75 186 187.5t63 255.5q0 135 -54 243t-155 166 t-237 58q-108 0 -183 -20q129 -98 199.5 -241.5t70.5 -311.5q0 -223 -109.5 -347.5t-307.5 -124.5q-197 0 -307.5 125t-110.5 347q0 171 75.5 313t218.5 241q-65 19 -156 19q-157 0 -238.5 -54.5t-119 -141.5t-37.5 -277v-548h-177v552q0 158 -25 241t-79 134.5t-118 72.5 t-168 21q-88 0 -145 -15q135 -99 206 -244t71 -314q0 -223 -108.5 -347.5t-303.5 -124.5q-201 0 -311.5 125t-110.5 347q0 172 72.5 314t212.5 243q-67 16 -148 16q-157 0 -238.5 -54.5t-119 -141.5t-37.5 -277v-548h-177v627zM1928 941q-115 -75 -179 -203.5t-64 -284.5 q0 -166 60.5 -249.5t177.5 -83.5q121 0 179 83.5t58 249.5q0 152 -61.5 283t-170.5 205zM3460 937q-115 -73 -181.5 -201t-66.5 -283q0 -166 60.5 -249.5t177.5 -83.5q237 0 237 333q0 151 -59.5 280.5t-167.5 203.5zM252 436q5 -151 69 -234t174 -83q79 0 127 53t48 150 t-52 152t-140 55q-116 0 -226 -93zM3919 144z"/>
    <glyph glyph-name="uni0D1F_uni0D4D_uni0D1F" horiz-adv-x="1152" d="M952 75q65 -48 97.5 -111t32.5 -142q0 -160 -127.5 -250.5t-363.5 -90.5q-147 0 -280.5 34.5t-269.5 110.5l95 138q212 -133 464 -133q151 0 229 50t78 139q0 57 -34 106.5t-105 83.5q-55 -10 -144 -10h-537v144h471q157 0 221 18.5t94 59t30 93.5q0 66 -29 105t-87 59.5 t-178 20.5h-37q-272 0 -386.5 80t-114.5 243q0 158 125 248.5t354 90.5q303 0 547 -139l-95 -139q-201 128 -454 128q-144 0 -221 -50t-77 -137q0 -94 70.5 -134.5t292.5 -40.5h15q150 0 246 -31t152 -104t56 -198q0 -81 -32.5 -141.5t-97.5 -100.5zM722 -690zM491 -24z"/>
    <glyph glyph-name="uni0D21_uni0D4D_uni0D21" horiz-adv-x="2505" d="M827 586q0 161 -19.5 245.5t-80 133.5t-160.5 49q-136 0 -221.5 -115t-85.5 -305q0 -307 245 -482l-117 -129q-165 131 -236.5 277.5t-71.5 339.5q0 256 137.5 409t363.5 153q105 0 185.5 -31.5t137.5 -97.5t79.5 -161t22.5 -266v-54q0 -186 21 -264.5t75 -121.5t143 -43 q83 0 139.5 44t78 121t21.5 217v629h177v-593q0 -113 8.5 -179.5t38.5 -120.5t84 -86t131 -32q139 0 230.5 119.5t91.5 298.5q0 155 -61.5 279.5t-183.5 211.5l122 130q162 -130 232.5 -279.5t70.5 -341.5q0 -142 -48.5 -259.5t-136.5 -193.5q95 -85 140 -181t45 -211 q0 -172 -103.5 -279t-272.5 -107q-170 0 -271 135q-97 -135 -273 -135q-131 0 -224 91.5t-93 325.5v21q0 86 -15.5 138.5t-60 83t-112.5 30.5q-97 0 -155.5 -70t-58.5 -181q0 -205 154 -334l-103 -105q-110 94 -160.5 201t-50.5 238q0 148 80.5 246t221.5 121 q-61 71 -81 165t-20 237v68zM1701 30q-36 21 -68.5 54t-61.5 78q-47 -78 -116 -121.5t-159 -53.5q54 -79 54 -267v-17q0 -92 15 -144.5t55 -81t103 -28.5q59 0 96 21.5t59.5 65.5t22.5 165v329zM2106 9q-89 -33 -191 -33q-32 0 -59 3v-290q0 -94 16 -138.5t61 -73t113 -28.5 q102 0 160.5 61.5t58.5 174.5q0 101 -39 179.5t-120 144.5zM589 144zM589 0zM1861 990zM1028 137z"/>
    <glyph glyph-name="uni0D21_uni0D4D_uni0D22" horiz-adv-x="2505" d="M827 586q0 161 -19.5 245.5t-80 133.5t-160.5 49q-136 0 -221.5 -115t-85.5 -305q0 -307 245 -482l-117 -129q-165 131 -236.5 277.5t-71.5 339.5q0 256 137.5 409t363.5 153q105 0 185.5 -31.5t137.5 -97.5t79.5 -161t22.5 -266v-54q0 -186 21 -264.5t75 -121.5t143 -43 q83 0 139.5 44t78 121t21.5 217v629h177v-593q0 -113 8.5 -179.5t38.5 -120.5t84 -86t131 -32q139 0 230.5 119.5t91.5 298.5q0 155 -61.5 279.5t-183.5 211.5l122 130q162 -130 232.5 -279.5t70.5 -341.5q0 -143 -54 -263.5t-151 -196.5q83 -33 129 -116.5t46 -213.5 q0 -124 -63 -225t-176.5 -158.5t-251.5 -57.5q-218 0 -328 135q-94 -135 -271 -135q-83 0 -160 42.5t-117 126t-40 236.5v25q0 80 -14 132.5t-59 84t-115 31.5q-97 0 -155.5 -69t-58.5 -177q0 -202 154 -327l-103 -105q-111 94 -161 199.5t-50 233.5q0 167 103 274.5 t267 107.5q70 0 135 -22q-62 72 -83 170t-21 245v68zM1501 -56q0 70 2 148q-107 -116 -282 -116q-75 0 -143 24q40 -49 56 -117t16 -169v-11q0 -92 14.5 -144.5t54 -81t104.5 -28.5q59 0 96 21.5t59.5 65.5t22.5 165v243zM1850 -15q-110 15 -196 102q2 -81 2 -153v-202 q0 -115 26.5 -172t83.5 -87t143 -30q102 0 192.5 54t124.5 140q-82 -45 -161 -45q-117 0 -184 72t-67 191q0 72 36 130zM2248 -229v1q0 110 -40.5 169t-113.5 59q-135 0 -135 -146q0 -65 35 -102.5t96 -37.5q82 0 158 57zM2094 121zM1861 990zM559 144zM559 0z"/>
    <glyph glyph-name="uni0D23_uni0D4D_uni0D21" horiz-adv-x="4119" d="M1248 0h-177v627q0 165 -40 240.5t-114 111.5t-186 36q-185 0 -312.5 -113t-159.5 -308q118 78 248 78q152 0 243 -89.5t91 -245.5q0 -166 -94.5 -263.5t-255.5 -97.5q-119 0 -212.5 60.5t-143.5 178t-50 279.5q0 201 81 352.5t230.5 233.5t337.5 82q140 0 242 -41.5 t186 -138.5q65 90 153.5 135t199.5 45q122 0 210.5 -47.5t144.5 -141.5q54 94 142 141.5t210 47.5q123 0 210 -54.5t135 -157.5t48 -330v-68q0 -186 21 -264.5t75 -121.5t143 -43q83 0 139.5 44t78 121t21.5 217v629h177v-593q0 -113 8.5 -179.5t38.5 -120.5t84 -86t131 -32 q139 0 230.5 119.5t91.5 298.5q0 317 -245 491l122 130q162 -130 232.5 -279.5t70.5 -341.5q0 -163 -63.5 -293t-179.5 -201t-267 -71q-112 0 -195 44t-149 143q-57 -94 -144.5 -140.5t-205.5 -46.5q-126 0 -213.5 56.5t-134 159.5t-46.5 326v87q0 174 -22.5 251.5t-76 118 t-140.5 40.5q-84 0 -140 -44t-77.5 -121.5t-21.5 -216.5v-633h-177v652q0 149 -28 220t-87 107t-152 36q-86 0 -145.5 -37.5t-90 -110t-30.5 -234.5v-633zM252 436q5 -151 69 -234t174 -83q79 0 127 53t48 150t-52 152t-140 55q-116 0 -226 -93zM3501 990z"/>
    <glyph glyph-name="uni0D23_uni200D_uni0D4D_uni0D22" horiz-adv-x="4336" d="M3270 511q0 -161 38 -237.5t112.5 -113.5t189.5 -37q182 0 308.5 110.5t161.5 307.5q-109 -75 -238 -75q-160 0 -251 91t-91 251q0 161 96.5 256.5t261.5 95.5q179 0 288.5 -129.5t109.5 -368.5q0 -208 -80 -363.5t-228 -239t-335 -83.5q-139 0 -241.5 40t-193.5 143 q-57 -92 -144 -137.5t-204 -45.5q-126 0 -213.5 56.5t-134 159.5t-46.5 326v87q0 174 -22.5 251.5t-76 118t-140.5 40.5q-84 0 -140 -44t-77.5 -121.5t-21.5 -216.5v-633h-177v652q0 149 -28 220t-87 107t-152 36q-86 0 -145.5 -37.5t-90 -110t-30.5 -234.5v-633h-177v627 q0 165 -40 240.5t-114 111.5t-186 36q-185 0 -312.5 -113t-159.5 -308q118 78 248 78q152 0 243 -89.5t91 -245.5q0 -166 -94.5 -263.5t-255.5 -97.5q-119 0 -212.5 60.5t-143.5 178t-50 279.5q0 201 81 352.5t230.5 233.5t337.5 82q140 0 242 -41.5t186 -138.5 q65 90 153.5 135t199.5 45q122 0 210.5 -47.5t144.5 -141.5q54 94 142 141.5t210 47.5q123 0 210 -54.5t135 -157.5t48 -330v-68q0 -186 21 -264.5t75 -121.5t143 -43q83 0 139.5 44t78 121t21.5 217v629h177v-623zM4090 701q-7 155 -71.5 236.5t-172.5 81.5q-79 0 -127 -53 t-48 -150q0 -100 50 -153.5t142 -53.5q120 0 227 92zM252 436q5 -151 69 -234t174 -83q79 0 127 53t48 150t-52 152t-140 55q-116 0 -226 -93z"/>
    <glyph glyph-name="uni0D23_uni0D4D_uni0D2E" horiz-adv-x="3141" d="M3016 0h-1235v652q0 149 -28 220t-87 107t-152 36q-86 0 -145.5 -37.5t-90 -110t-30.5 -234.5v-633h-177v627q0 165 -40 240.5t-114 111.5t-186 36q-185 0 -312.5 -113t-159.5 -308q118 78 248 78q152 0 243 -89.5t91 -245.5q0 -166 -94.5 -263.5t-255.5 -97.5 q-119 0 -212.5 60.5t-143.5 178t-50 279.5q0 201 81 352.5t230.5 233.5t337.5 82q140 0 242 -41.5t186 -138.5q65 90 153.5 135t199.5 45q134 0 229 -56.5t151 -168.5q74 112 196 168.5t292 56.5q193 0 334 -62.5t220 -191.5t79 -363v-545zM1958 139h10q229 172 354.5 350.5 t125.5 333.5q0 91 -41.5 141.5t-120.5 50.5q-139 0 -233 -121.5t-95 -372.5v-382zM2839 509q0 248 -76 355t-208 141q38 -47 53.5 -94.5t15.5 -106.5q0 -156 -97.5 -316t-307.5 -350q89 6 176 6h444v365zM252 436q5 -151 69 -234t174 -83q79 0 127 53t48 150t-52 152 t-140 55q-116 0 -226 -93z"/>
    <glyph glyph-name="uni0D23_uni0D4D_uni0D23" horiz-adv-x="2802" d="M1071 114v513q0 165 -40 240.5t-114 111.5t-186 36q-185 0 -313 -113.5t-159 -307.5q116 78 248 78q152 0 243 -89.5t91 -245.5q0 -166 -94.5 -263.5t-255.5 -97.5q-119 0 -212.5 60.5t-143.5 178t-50 279.5q0 201 81 352.5t230.5 233.5t337.5 82q141 0 243 -42.5 t184 -137.5q65 90 153.5 135t200.5 45q121 0 209 -46.5t143 -138.5q68 96 152 140.5t208 44.5q148 0 260.5 -71.5t173.5 -201.5t61 -291q0 -153 -49 -276t-154 -229q93 -48 143 -142t50 -214q0 -124 -50 -228t-161 -199l-103 105q154 129 154 337q0 119 -57 183.5t-157 64.5 q-70 0 -113 -34.5t-57.5 -83t-14.5 -175.5v-387h-155v387q0 95 -8.5 144t-31 81.5t-58.5 50t-95 17.5q-67 0 -110 -32t-57.5 -87.5t-14.5 -170.5v-390h-155v380q0 113 -25.5 173.5t-83.5 93.5t-148 33q-112 0 -207.5 -62t-122.5 -160q83 49 168 49q117 0 184 -70.5 t67 -186.5q0 -118 -74 -189t-204 -71q-141 0 -222 100t-81 276q0 153 94 269.5t258 158.5zM1248 131q82 -4 156.5 -35.5t140.5 -90.5q47 58 106 90t130 37v520q0 149 -28 220t-87 107t-152 36q-86 0 -145.5 -37.5t-90 -110t-30.5 -234.5v-502zM2076 7q46 62 109 93.5 t143 33.5q214 170 214 464q0 182 -89 299.5t-228 117.5q-80 0 -132 -27.5t-84 -79.5t-41.5 -120.5t-9.5 -190.5v-492q65 -30 118 -98zM251 436q6 -153 70.5 -235t173.5 -82q79 0 127 53t48 150t-52 152t-140 55q-116 0 -227 -93zM866 -351q2 -104 43 -161t111 -57 q135 0 135 140q0 62 -35.5 98t-95.5 36q-82 0 -158 -56zM781 0z"/>
    <glyph glyph-name="uni0D23_uni0D4D_uni0D1F" horiz-adv-x="2995" d="M1913 927q90 117 227 176t322 59q211 0 337 -78.5t126 -213.5q0 -81 -34 -133.5t-91.5 -75t-166.5 -22.5h-59q-129 0 -169.5 -20t-40.5 -67q0 -44 40.5 -63.5t160.5 -19.5h25q179 0 257 -59.5t78 -177.5q0 -121 -95 -188.5t-267 -67.5q-101 0 -210 21.5t-180 53.5l63 140 q154 -70 324 -70q196 0 196 106q0 51 -35.5 75t-135.5 24h-30q-207 0 -283 58t-76 165q0 68 33 117t110 82t220 33h84q66 0 87.5 19.5t21.5 65.5q0 73 -75.5 110.5t-216.5 37.5q-137 0 -250.5 -51t-182.5 -164t-69 -371v-428h-177v652q0 149 -28 220t-87 107t-152 36 q-86 0 -145.5 -37.5t-90 -110t-30.5 -234.5v-633h-177v627q0 165 -40 240.5t-114 111.5t-186 36q-185 0 -312.5 -113t-159.5 -308q118 78 248 78q152 0 243 -89.5t91 -245.5q0 -166 -94.5 -263.5t-255.5 -97.5q-119 0 -212.5 60.5t-143.5 178t-50 279.5q0 201 81 352.5 t230.5 233.5t337.5 82q140 0 241.5 -42t185.5 -138q62 87 155 133.5t201 46.5q136 0 231.5 -55t164.5 -180zM252 436q5 -151 69 -234t174 -83q79 0 127 53t48 150t-52 152t-140 55q-116 0 -226 -93z"/>
    <glyph glyph-name="uni0D24_uni0D4D_uni0D28" horiz-adv-x="2734" d="M1791 965q62 99 149 148t219 49q148 0 260.5 -71.5t173.5 -201.5t61 -291q0 -190 -75.5 -337.5t-241.5 -277.5l-110 126q125 88 186 209t61 280q0 181 -88.5 298.5t-228.5 117.5q-72 0 -122.5 -22.5t-85.5 -72t-47 -114.5t-12 -208v-597h-177v552q0 158 -25 241 t-79 134.5t-118 72.5t-168 21q-91 0 -153 -18q136 -98 210.5 -243t74.5 -312q0 -223 -108.5 -347.5t-303.5 -124.5q-201 0 -311.5 125t-110.5 347q0 169 71 310.5t209 242.5q-72 20 -164 20q-221 0 -348 -127.5t-127 -334.5q0 -296 249 -448l-101 -129q-157 89 -243.5 241.5 t-86.5 343.5q0 175 79 311.5t223.5 210t335.5 73.5q166 0 315 -66q143 66 315 66q150 0 260.5 -49.5t182.5 -147.5zM1034 934q-112 -76 -173 -202.5t-61 -278.5q0 -166 60.5 -249.5t177.5 -83.5q121 0 179 83.5t58 249.5q0 147 -65 277t-176 204zM2169 144z"/>
    <glyph glyph-name="uni0D24_uni0D4D_uni0D2D" horiz-adv-x="2910" d="M2489 639q-129 0 -169.5 -20t-40.5 -67q0 -44 40.5 -63.5t160.5 -19.5h25q179 0 257 -59.5t78 -177.5q0 -121 -95 -188.5t-267 -67.5q-101 0 -210 21.5t-180 53.5l63 140q154 -70 324 -70q196 0 196 106q0 51 -35.5 75t-135.5 24h-30q-207 0 -283 58t-76 165q0 68 33 117 t110 82t220 33h84q66 0 87.5 19.5t21.5 65.5q0 73 -75.5 110.5t-216.5 37.5q-160 0 -263.5 -46.5t-162.5 -153t-59 -329.5v-485h-177v552q0 158 -25 241t-79 134.5t-118 72.5t-168 21q-91 0 -153 -18q136 -98 210.5 -243t74.5 -312q0 -223 -108.5 -347.5t-303.5 -124.5 q-201 0 -311.5 125t-110.5 347q0 169 71 310.5t209 242.5q-72 20 -164 20q-221 0 -348 -127.5t-127 -334.5q0 -296 249 -448l-101 -129q-157 89 -243.5 241.5t-86.5 343.5q0 175 79 311.5t223.5 210t335.5 73.5q166 0 315 -66q143 66 315 66q166 0 283.5 -62t187.5 -185 q76 121 218 184t340 63q211 0 337 -78.5t126 -213.5q0 -81 -34 -133.5t-91.5 -75t-166.5 -22.5h-59zM1034 934q-112 -76 -173 -202.5t-61 -278.5q0 -166 60.5 -249.5t177.5 -83.5q121 0 179 83.5t58 249.5q0 147 -65 277t-176 204zM609 144z"/>
    <glyph glyph-name="uni0D24_uni0D4D_uni0D2E" horiz-adv-x="3073" d="M1816 921q76 120 200.5 180.5t298.5 60.5q193 0 334 -62.5t220 -191.5t79 -363v-545h-1235v552q0 158 -25 241t-79 134.5t-118 72.5t-168 21q-91 0 -153 -18q136 -98 210.5 -243t74.5 -312q0 -223 -108.5 -347.5t-303.5 -124.5q-201 0 -311.5 125t-110.5 347 q0 169 71 310.5t209 242.5q-72 20 -164 20q-221 0 -348 -127.5t-127 -334.5q0 -296 249 -448l-101 -129q-157 89 -243.5 241.5t-86.5 343.5q0 175 79 311.5t223.5 210t335.5 73.5q166 0 315 -66q143 66 315 66q164 0 281 -60.5t187 -180.5zM1890 139h10q229 172 354.5 350.5 t125.5 333.5q0 91 -41.5 141.5t-120.5 50.5q-140 0 -234 -123t-94 -383v-370zM2771 509q0 248 -76 355t-208 141q38 -47 53.5 -94.5t15.5 -106.5q0 -156 -97.5 -316t-307.5 -350q89 6 176 6h444v365zM1034 934q-112 -76 -173 -202.5t-61 -278.5q0 -166 60.5 -249.5 t177.5 -83.5q121 0 179 83.5t58 249.5q0 147 -65 277t-176 204z"/>
    <glyph glyph-name="uni0D24_uni0D4D_uni0D38" horiz-adv-x="3374" d="M1890 0h-177v552q0 158 -25 241t-79 134.5t-118 72.5t-168 21q-91 0 -153 -18q136 -98 210.5 -243t74.5 -312q0 -223 -108.5 -347.5t-303.5 -124.5q-201 0 -311.5 125t-110.5 347q0 169 71 310.5t209 242.5q-72 20 -164 20q-221 0 -348 -127.5t-127 -334.5 q0 -296 249 -448l-101 -129q-157 89 -243.5 241.5t-86.5 343.5q0 175 79 311.5t223.5 210t335.5 73.5q166 0 315 -66q143 66 315 66q146 0 255 -48.5t182 -144.5q66 99 152.5 146t215.5 47q126 0 213.5 -56.5t134 -159.5t46.5 -326v-68q0 -160 19.5 -245.5t79.5 -134 t160 -48.5q138 0 223 113.5t85 306.5q0 153 -62.5 278t-182.5 210l122 130q162 -130 232.5 -278t70.5 -340q0 -262 -136 -415t-365 -153q-106 0 -189 33t-138.5 100.5t-76.5 162.5t-21 260v73q0 174 -22.5 251.5t-76 118t-140.5 40.5q-83 0 -140 -44.5t-78 -122.5t-21 -215 v-633zM1034 934q-112 -76 -173 -202.5t-61 -278.5q0 -166 60.5 -249.5t177.5 -83.5q121 0 179 83.5t58 249.5q0 147 -65 277t-176 204zM569 144zM2761 990zM2761 1134z"/>
    <glyph glyph-name="uni0D24_uni0D4D_uni0D24" horiz-adv-x="3603" d="M1805 939q71 111 185 167t271 56q180 0 317 -66q146 66 337 66q186 0 323.5 -72.5t211 -207t73.5 -307.5q0 -384 -330 -593l-101 129q123 75 186 187.5t63 255.5q0 135 -54 243t-155 166t-237 58q-108 0 -183 -20q129 -98 199.5 -241.5t70.5 -311.5q0 -223 -109.5 -347.5 t-307.5 -124.5q-197 0 -307.5 125t-110.5 347q0 171 75.5 313t218.5 241q-65 19 -156 19q-157 0 -238.5 -54.5t-119 -141.5t-37.5 -277v-548h-177v552q0 158 -25 241t-79 134.5t-118 72.5t-168 21q-91 0 -153 -18q136 -98 210.5 -243t74.5 -312q0 -223 -108.5 -347.5 t-303.5 -124.5q-201 0 -311.5 125t-110.5 347q0 169 71 310.5t209 242.5q-72 20 -164 20q-221 0 -348 -127.5t-127 -334.5q0 -296 249 -448l-101 -129q-157 89 -243.5 241.5t-86.5 343.5q0 175 79 311.5t223.5 210t335.5 73.5q166 0 315 -66q143 66 315 66q157 0 271 -56 t186 -167zM2575 937q-115 -73 -181.5 -201t-66.5 -283q0 -166 60.5 -249.5t177.5 -83.5q237 0 237 333q0 151 -59.5 280.5t-167.5 203.5zM1034 934q-112 -76 -173 -202.5t-61 -278.5q0 -166 60.5 -249.5t177.5 -83.5q121 0 179 83.5t58 249.5q0 147 -65 277t-176 204z M3019 144z"/>
    <glyph glyph-name="uni0D24_uni0D4D_uni0D24_uni0D4D_uni0D32" horiz-adv-x="3603" d="M2185 -225q87 52 173 52q117 0 184 -70.5t67 -186.5q0 -120 -75.5 -190t-209.5 -70q-137 0 -216.5 98.5t-79.5 266.5q0 144 68.5 248t192.5 151q-71 57 -106.5 150.5t-35.5 223.5q0 170 75 312.5t219 241.5q-64 19 -156 19q-157 0 -238.5 -54.5t-119 -141.5t-37.5 -277 v-548h-177v552q0 158 -25 241t-79 134.5t-118 72.5t-168 21q-91 0 -153 -18q137 -98 211 -243t74 -312q0 -223 -108.5 -347.5t-303.5 -124.5q-201 0 -311.5 125t-110.5 347q0 168 71 310t208 242q-73 21 -163 21q-221 0 -348 -127.5t-127 -334.5q0 -296 249 -448l-101 -129 q-157 89 -243.5 241.5t-86.5 343.5q0 175 79 311.5t223.5 210t335.5 73.5q167 0 314 -66q140 66 316 66q157 0 271 -56t186 -167q72 111 186 167t270 56q92 0 166.5 -15.5t150.5 -51.5q77 34 156.5 50.5t180.5 16.5q186 0 323.5 -72.5t211 -207t73.5 -307.5 q0 -154 -53 -279.5t-158 -223.5q168 -157 168 -376q0 -175 -102 -280.5t-279 -105.5q-132 0 -210.5 50t-111 129t-32.5 197v2q0 165 -66 233.5t-197 68.5q-116 0 -195 -56.5t-102 -158.5zM2711 1001q131 -99 201 -242t70 -311q0 -321 -216 -419q23 -12 60 -51.5t59 -105.5 t22 -169v-7q0 -84 15 -135.5t60 -82.5t117 -31q101 0 161 64t60 176q0 179 -127 295l-101 129q123 75 186 187.5t63 255.5q0 135 -54 243t-155 166t-237 58q-113 0 -184 -20zM2575 937q-115 -73 -181.5 -201t-66.5 -283q0 -166 60.5 -249.5t177.5 -83.5q118 0 177.5 83 t59.5 250q0 151 -59.5 280.5t-167.5 203.5zM1033 934q-110 -76 -171.5 -201.5t-61.5 -279.5q0 -166 60.5 -249.5t177.5 -83.5q121 0 179 83.5t58 249.5q0 147 -65 277t-177 204zM2175 -351q2 -105 42.5 -161.5t111.5 -56.5q135 0 135 140q0 62 -35.5 98t-95.5 36 q-82 0 -158 -56zM613 144zM2028 137z"/>
    <glyph glyph-name="uni0D24_uni0D4D_uni0D25" horiz-adv-x="3448" d="M3318 0h-1653l-74 111q124 101 174 205.5t50 237.5q0 135 -54.5 242.5t-156 166t-236.5 58.5q-121 0 -191 -21q133 -98 206 -241.5t73 -310.5q0 -223 -109.5 -347.5t-307.5 -124.5q-196 0 -307 125t-111 347q0 166 73 307t214 244q-75 22 -172 22q-143 0 -250.5 -56 t-165.5 -162.5t-58 -243.5q0 -296 249 -448l-101 -129q-157 89 -243.5 241.5t-86.5 343.5q0 176 80 312.5t224 209.5t334 73q176 0 323 -71q147 71 348 71q186 0 323.5 -72.5t211 -207t73.5 -307.5q0 -257 -155 -431h466v481q0 148 31.5 241.5t97.5 159.5t159 101t210 35 q172 0 288 -65t170 -176t54 -296v-625zM3141 558q0 162 -29 258t-107 147t-195 51q-115 0 -189.5 -50.5t-105 -142.5t-30.5 -247v-430h656v414zM1041 932q-113 -74 -176.5 -200t-63.5 -279q0 -166 60.5 -249.5t177.5 -83.5q237 0 237 333q0 144 -63.5 273.5t-171.5 205.5z "/>
    <glyph glyph-name="uni0D24_uni0D4D_uni0D32" horiz-adv-x="2077" d="M659 -225q87 52 173 52q117 0 184 -70.5t67 -186.5q0 -120 -75.5 -190t-209.5 -70q-137 0 -216.5 98.5t-79.5 266.5q0 144 68.5 248t192.5 151q-142 115 -142 374q0 165 73 306t214 244q-76 23 -172 23q-143 0 -250.5 -56t-165.5 -162.5t-58 -243.5q0 -296 249 -448 l-101 -129q-157 89 -243.5 241.5t-86.5 343.5q0 176 80 312.5t224 209.5t334 73q176 0 323 -71q152 71 348 71q186 0 323.5 -72.5t211 -207t73.5 -307.5q0 -154 -53 -279.5t-158 -223.5q168 -157 168 -376q0 -175 -102 -280.5t-279 -105.5q-132 0 -210.5 50t-111 129 t-32.5 197v2q0 165 -66 233.5t-197 68.5q-116 0 -195 -56.5t-102 -158.5zM1176 999q135 -99 207.5 -243t72.5 -308q0 -321 -216 -419q23 -12 60 -51.5t59 -105.5t22 -169v-7q0 -84 15 -135.5t60 -82.5t117 -31q101 0 161 64t60 176q0 179 -127 295l-101 129 q123 75 186 187.5t63 255.5q0 135 -54.5 242.5t-156 166t-236.5 58.5q-120 0 -192 -22zM1040 931q-113 -75 -176 -201.5t-63 -276.5q0 -166 60.5 -249.5t177.5 -83.5q118 0 177.5 83t59.5 250q0 142 -62.5 270.5t-173.5 207.5zM649 -351q2 -105 42.5 -161.5t111.5 -56.5 q135 0 135 140q0 62 -35.5 98t-95.5 36q-82 0 -158 -56zM578 0zM578 144zM1009 -24zM856 127z"/>
    <glyph glyph-name="uni0D26_uni0D4D_uni0D26" horiz-adv-x="1310" d="M938 2q-16 -2 -68 -2h-224v144h156q100 0 152 14t78.5 51.5t26.5 97.5q0 51 -27.5 90.5t-83.5 66t-191 26.5h-94v144h93q281 0 281 192q0 90 -70.5 139t-203.5 49q-226 0 -349 -151t-123 -418q0 -240 51 -426l-168 -28q-29 93 -46.5 219t-17.5 239q0 333 172 523t485 190 q207 0 327 -89.5t120 -231.5q0 -99 -48.5 -165.5t-146.5 -109.5q106 -34 161.5 -101.5t55.5 -158.5q0 -78 -30 -138t-89 -102q59 -47 89 -108t30 -136q0 -160 -107 -250.5t-300 -90.5q-158 0 -270.5 27.5t-254.5 93.5l95 138q124 -62 222 -85.5t204 -23.5q114 0 175 50.5 t61 138.5q0 53 -31 101t-92 81zM798 -690zM550 -23z"/>
    <glyph glyph-name="uni0D26_uni0D4D_uni0D27" horiz-adv-x="2428" d="M342 19l-168 -28q-29 93 -46.5 219t-17.5 239q0 336 174 524.5t495 188.5q195 0 301 -67t106 -184q0 -75 -41.5 -131.5t-116.5 -81.5q87 -24 133.5 -77.5t46.5 -123.5q0 -81 -37.5 -129t-102 -71t-194.5 -23h-13q-46 0 -62 -12.5t-16 -34.5q0 -51 58.5 -80t159.5 -29 q130 0 223 51t138 144.5t45 272.5v548h177v-593q0 -118 9 -183.5t39 -118t83 -84t131 -31.5q89 0 163 52t116.5 150t42.5 218q0 314 -245 488l122 130q162 -130 232.5 -278.5t70.5 -339.5q0 -164 -62.5 -293.5t-178.5 -202t-269 -72.5q-124 0 -215 53t-148 160 q-77 -107 -195.5 -160t-279.5 -53q-181 0 -282.5 70.5t-101.5 179.5q0 60 29.5 104.5t84.5 64t163 19.5h7q78 0 109 22.5t31 73.5q0 54 -40 84t-177 30h-121v140h108q78 0 119 8.5t64 36.5t23 74q0 64 -61.5 99.5t-177.5 35.5q-232 0 -359 -152.5t-127 -420.5 q0 -240 51 -426zM461 0zM1851 990z"/>
    <glyph glyph-name="uni0D28_uni0D4D_uni0D26" horiz-adv-x="1948" d="M959 946q78 109 198 162.5t261 53.5q200 0 317 -88t117 -233q0 -98 -47.5 -164.5t-147.5 -109.5q106 -37 161.5 -109t55.5 -166q0 -149 -96.5 -232t-269.5 -83q-98 0 -202 23l37 141q81 -20 145 -20q107 0 158 43t51 131q0 59 -32 103t-89.5 68t-180.5 24h-54v144h53 q142 0 211.5 47.5t69.5 144.5q0 91 -65 139.5t-188 48.5q-131 0 -219.5 -51.5t-135 -149t-46.5 -318.5v-495h-177v597q0 116 -9 182t-38.5 119t-83 84.5t-131.5 31.5q-139 0 -230.5 -118.5t-91.5 -298.5q0 -315 245 -485l-117 -129q-162 128 -235 275.5t-73 338.5 q0 166 64 295.5t180 199.5t266 70q121 0 215 -55t154 -161zM584 144z"/>
    <glyph glyph-name="uni0D28_uni0D4D_uni0D27" horiz-adv-x="3177" d="M2333 541q0 -113 8.5 -179.5t38.5 -120.5t84 -86t131 -32q139 0 230.5 119.5t91.5 298.5q0 317 -245 491l122 130q162 -130 232.5 -279.5t70.5 -341.5q0 -163 -63.5 -293t-179.5 -201t-267 -71q-113 0 -196.5 44.5t-147.5 141.5q-57 -93 -144.5 -139.5t-205.5 -46.5 q-126 0 -213.5 56.5t-134 159.5t-46.5 326v87q0 174 -22.5 251.5t-76 118t-140.5 40.5q-84 0 -140 -44t-77.5 -121.5t-21.5 -216.5v-633h-177v597q0 116 -9 182t-38.5 119t-83 84.5t-131.5 31.5q-139 0 -230.5 -118.5t-91.5 -298.5q0 -317 245 -485l-117 -129 q-162 128 -235 275.5t-73 338.5q0 166 64 295.5t180 199.5t266 70q115 0 199 -45t145 -141q109 186 351 186q123 0 210 -54.5t135 -157.5t48 -330v-68q0 -186 21 -264.5t75 -121.5t143 -43q83 0 139.5 44t78 121t21.5 217v629h177v-593zM584 144zM2633 990z"/>
    <glyph glyph-name="uni0D28_uni0D4D_uni0D28" horiz-adv-x="2575" d="M1641 976q64 95 147 140.5t212 45.5q148 0 260.5 -71.5t173.5 -201.5t61 -291q0 -191 -76 -338.5t-241 -276.5l-110 126q125 88 186 209t61 280q0 181 -88.5 298.5t-228.5 117.5q-81 0 -133 -27.5t-84 -80.5t-41 -121t-9 -188v-597h-177v652q0 149 -28 220t-87 107 t-152 36q-86 0 -145.5 -37.5t-90 -110t-30.5 -234.5v-633h-177v597q0 155 -20 234.5t-82.5 131.5t-159.5 52q-89 0 -162.5 -52t-116.5 -149.5t-43 -216.5q0 -315 245 -485l-117 -130q-162 128 -235 275.5t-73 339.5q0 162 63 292t179 201.5t268 71.5q111 0 194.5 -43.5 t149.5 -143.5q60 93 150.5 140t203.5 47q122 0 210 -46.5t143 -139.5zM584 144z"/>
    <glyph glyph-name="uni0D28_uni0D4D_uni0D2E" horiz-adv-x="2204" d="M961 941q76 110 197.5 165.5t287.5 55.5q193 0 334 -62.5t220 -191.5t79 -363v-545h-1235v597q0 116 -9 182t-38.5 119t-83 84.5t-131.5 31.5q-139 0 -230.5 -118.5t-91.5 -298.5q0 -314 245 -485l-117 -129q-162 128 -235 275.5t-73 338.5q0 166 64 295.5t180 199.5 t266 70q122 0 215 -55.5t156 -165.5zM1021 139h10q229 172 354.5 350.5t125.5 333.5q0 91 -41.5 141.5t-120.5 50.5q-140 0 -234 -123t-94 -383v-370zM1902 509q0 248 -76 355t-208 141q38 -47 53.5 -94.5t15.5 -106.5q0 -156 -97.5 -316t-307.5 -350q89 6 176 6h444v365z "/>
    <glyph glyph-name="uni0D28_uni0D4D_uni0D31" horiz-adv-x="2173" d="M844 597q0 116 -9 182t-38.5 119t-83 84.5t-131.5 31.5q-139 0 -230.5 -118.5t-91.5 -298.5q0 -159 63 -283.5t182 -201.5l-117 -129q-162 128 -235 275.5t-73 338.5q0 166 64 295.5t180 199.5t266 70q119 0 208 -51t149 -152q72 101 185 152t267 51q136 0 256 -46 q64 64 90 114.5t26 102.5q0 64 -41.5 103t-117.5 39q-81 0 -153 -22l-40 140q108 30 220 30q99 0 168.5 -34t106 -94.5t36.5 -125.5q0 -86 -38.5 -162t-123.5 -161q144 -99 224.5 -259t80.5 -334q0 -152 -48 -254t-143 -154q96 -49 146 -137t50 -204q0 -239 -210 -394 l-102 108q73 48 110.5 118.5t37.5 153.5q0 135 -77 216.5t-207 81.5q-129 0 -208 -83t-79 -209q0 -90 35.5 -157t112.5 -121l-102 -108q-210 153 -210 388q0 129 59.5 223t172.5 139q-79 53 -118 149.5t-39 235.5q0 149 66.5 287.5t200.5 267.5q-60 17 -130 17 q-152 0 -236 -55.5t-119 -146t-35 -270.5v-545h-177v597zM1685 933q-113 -101 -172 -226.5t-59 -266.5q0 -159 58.5 -239.5t169.5 -80.5q112 0 170.5 80.5t58.5 239.5q0 150 -59 283t-167 210zM564 144zM1611 -553zM1656 -24zM922 1726zM1650 125z"/>
    <glyph glyph-name="uni0D28_uni0D4D_uni0D24" horiz-adv-x="2734" d="M950 961q72 100 182.5 150.5t259.5 50.5q180 0 317 -66q146 66 337 66q186 0 323.5 -72.5t211 -207t73.5 -307.5q0 -384 -330 -593l-101 129q123 75 186 187.5t63 255.5q0 135 -54 243t-155 166t-237 58q-108 0 -183 -20q129 -98 199.5 -241.5t70.5 -311.5 q0 -223 -109.5 -347.5t-307.5 -124.5q-197 0 -307.5 125t-110.5 347q0 171 75.5 313t218.5 241q-65 19 -156 19q-157 0 -238.5 -54.5t-119 -141.5t-37.5 -277v-548h-177v597q0 116 -9 182t-38.5 119t-83 84.5t-131.5 31.5q-139 0 -230.5 -118.5t-91.5 -298.5 q0 -314 245 -485l-117 -129q-162 128 -235 275.5t-73 338.5q0 166 64 295.5t180 199.5t266 70q117 0 203.5 -47.5t156.5 -153.5zM1706 937q-115 -73 -181.5 -201t-66.5 -283q0 -166 60.5 -249.5t177.5 -83.5q237 0 237 333q0 151 -59.5 280.5t-167.5 203.5zM2144 144z"/>
    <glyph glyph-name="uni0D28_uni0D4D_uni0D25" horiz-adv-x="3237" d="M3107 0h-1653l-74 111q133 127 179 239t46 248q0 182 -89 299.5t-228 117.5q-80 0 -132 -27.5t-84 -79.5t-41.5 -120.5t-9.5 -190.5v-597h-177v597q0 116 -9 182t-38.5 119t-83 84.5t-131.5 31.5q-139 0 -230.5 -118.5t-91.5 -298.5q0 -314 245 -485l-117 -129 q-162 128 -235 275.5t-73 338.5q0 166 64 295.5t180 199.5t266 70q113 0 197 -44.5t144 -138.5q68 96 152.5 139.5t206.5 43.5q148 0 260.5 -71.5t173.5 -201.5t61 -291q0 -125 -35.5 -234t-125.5 -220h473v481q0 148 31.5 241.5t97.5 159.5t159 101t210 35q172 0 288 -65 t170 -176t54 -296v-625zM2930 558q0 162 -29 258t-107 147t-195 51q-115 0 -189.5 -50.5t-105 -142.5t-30.5 -247v-430h656v414z"/>
    <glyph glyph-name="uni0D2A_uni0D4D_uni0D2A" horiz-adv-x="1836" d="M1690 -651h-852l-45 106q36 38 48.5 70.5t12.5 73.5q0 67 -44.5 108.5t-122.5 41.5t-123 -40t-45 -102q0 -95 89 -163l-93 -99q-146 109 -146 261q0 124 87 201t230 77q148 0 232.5 -74.5t84.5 -187.5q0 -77 -30 -132h538v510h-839l-59 107q89 83 89 216q0 113 -60.5 177 t-171.5 64q-104 0 -168 -65.5t-64 -163.5q0 -150 120 -230l-93 -119q-99 68 -149.5 158t-50.5 195q0 163 112 266t293 103q120 0 212 -45.5t142 -128.5t50 -180q0 -131 -63 -210h700v990h179v-1785zM798 -690zM954 1162z"/>
    <glyph glyph-name="uni0D2A_uni0D4D_uni0D32" horiz-adv-x="1835" d="M495 -227q87 54 175 54q117 0 184 -70.5t67 -186.5q0 -120 -75 -190t-208 -70q-138 0 -218 98t-80 267q0 150 72.5 264.5t199.5 163.5l-1 1q91 85 91 219q0 113 -60.5 177t-171.5 64q-104 0 -168 -65.5t-64 -163.5q0 -150 120 -230l-93 -119q-99 68 -149.5 158t-50.5 195 q0 163 112 266t293 103q120 0 212 -45.5t142 -128.5t50 -180q0 -131 -63 -210h700v990h179v-1134h-112q112 -159 112 -338q0 -159 -87 -255.5t-240 -96.5q-163 0 -249.5 92t-86.5 275v9q0 172 -61.5 243t-189.5 71q-111 0 -186.5 -60.5t-94.5 -166.5zM1197 0q-41 0 -110 3 q54 -51 78 -122.5t24 -177.5v-13q0 -143 44.5 -193t124.5 -50q84 0 127.5 53.5t43.5 157.5q0 189 -144 342h-188zM488 -351q3 -105 43.5 -161.5t109.5 -56.5q135 0 135 140q0 62 -35.5 98t-95.5 36q-81 0 -157 -56zM1054 1162zM586 137z"/>
    <glyph glyph-name="uni0D2B_uni0D4D_uni0D32" horiz-adv-x="2312" d="M2182 0h-106q53 -65 79.5 -141t26.5 -163q0 -175 -102 -280.5t-277 -105.5q-134 0 -212.5 50t-111 129t-32.5 197v2q0 169 -65 240.5t-198 71.5q-117 0 -196 -59.5t-102 -166.5q87 53 174 53q117 0 184 -70.5t67 -186.5q0 -120 -75.5 -190t-209.5 -70q-137 0 -216.5 98.5 t-79.5 266.5q0 104 34 186t103 142q-61 -3 -124 -3h-71l-59 107q89 83 89 216q0 113 -60.5 177t-171.5 64q-104 0 -168 -65.5t-64 -163.5q0 -150 120 -230l-93 -119q-99 68 -149.5 158t-50.5 195q0 163 112 266t293 103q120 0 212 -45.5t142 -128.5t50 -180q0 -131 -63 -210 h361v481q0 148 31.5 241.5t97.5 159.5t159 101t210 35q172 0 288 -65t170 -176t54 -296v-625zM2005 558q0 162 -29 258t-107 147t-195 51q-115 0 -189.5 -50.5t-105 -142.5t-30.5 -247v-430h656v414zM1875 0h-257q-75 0 -106 2q51 -48 74 -120t23 -179v-13q0 -78 14.5 -129 t59.5 -82.5t118 -31.5q101 0 161 64t60 176q0 96 -37 174t-110 139zM877 -351q2 -105 42.5 -161.5t111.5 -56.5q135 0 135 140q0 62 -35.5 98t-95.5 36q-82 0 -158 -56z"/>
    <glyph glyph-name="uni0D2C_uni0D4D_uni0D2C" horiz-adv-x="2674" d="M2350 144v990h179v-1687h-1040l-77 141l393 285q80 58 200 130q-48 -3 -153 -3h-171l-74 111q133 127 179 239t46 248q0 182 -89 299.5t-228 117.5q-80 0 -132 -27.5t-84 -79.5t-41.5 -120.5t-9.5 -190.5v-597h-177v627q0 165 -40 240.5t-114 111.5t-186 36 q-185 0 -313 -113.5t-159 -307.5q116 78 248 78q152 0 243 -89.5t91 -245.5q0 -166 -94.5 -263.5t-255.5 -97.5q-119 0 -212.5 60.5t-143.5 178t-50 279.5q0 201 81 352.5t230.5 233.5t337.5 82q142 0 243 -42.5t184 -138.5q66 96 149 138.5t207 42.5q148 0 260.5 -71.5 t173.5 -201.5t61 -291q0 -125 -35.5 -234t-125.5 -220h499zM251 436q6 -153 70.5 -235t173.5 -82q79 0 127 53t48 150t-52 152t-140 55q-116 0 -227 -93zM2350 -412v412h-111l-584 -416l1 -4q90 8 262 8h432zM1026 -690z"/>
    <glyph glyph-name="uni0D2C_uni200D_uni0D4D_uni0D26" horiz-adv-x="2674" d="M2350 144v990h179v-1134h-78q31 -40 31 -91q0 -75 -34.5 -119t-99.5 -68q148 -55 148 -192q0 -103 -75 -161.5t-211 -58.5q-90 0 -165 15l25 132q64 -13 120 -13q79 0 115 23t36 77q0 55 -44.5 82t-143.5 27h-84v133h93q84 0 124 26.5t40 82.5q0 105 -205 105 q-177 0 -271 -100.5t-94 -278.5q0 -163 35 -283l-152 -28q-21 69 -33.5 160t-12.5 166q0 124 44 218t118 146h-74l-74 111q133 127 179 239t46 248q0 182 -89 299.5t-228 117.5q-80 0 -132 -27.5t-84 -79.5t-41.5 -120.5t-9.5 -190.5v-597h-177v627q0 165 -40 240.5 t-114 111.5t-186 36q-185 0 -313 -113.5t-159 -307.5q116 78 248 78q152 0 243 -89.5t91 -245.5q0 -166 -94.5 -263.5t-255.5 -97.5q-119 0 -212.5 60.5t-143.5 178t-50 279.5q0 201 81 352.5t230.5 233.5t337.5 82q142 0 243 -42.5t184 -138.5q66 96 149 138.5t207 42.5 q148 0 260.5 -71.5t173.5 -201.5t61 -291q0 -125 -35.5 -234t-125.5 -220h499zM251 436q6 -153 70.5 -235t173.5 -82q79 0 127 53t48 150t-52 152t-140 55q-116 0 -227 -93z"/>
    <glyph glyph-name="uni0D2C_uni200D_uni0D4D_uni0D27" horiz-adv-x="2674" d="M1607 111q133 127 179 239t46 248q0 182 -89 299.5t-228 117.5q-80 0 -132 -27.5t-84 -79.5t-41.5 -120.5t-9.5 -190.5v-597h-177v627q0 165 -40 240.5t-114 111.5t-186 36q-185 0 -312.5 -113t-159.5 -308q118 78 248 78q152 0 243 -89.5t91 -245.5q0 -166 -94.5 -263.5 t-255.5 -97.5q-119 0 -212.5 60.5t-143.5 178t-50 279.5q0 201 81 352.5t230.5 233.5t337.5 82q139 0 240.5 -41t187.5 -139q63 91 144.5 135.5t210.5 44.5q148 0 260.5 -71.5t173.5 -201.5t61 -291q0 -125 -35.5 -234t-125.5 -220h499v990h179v-1134h-128 q79 -78 116.5 -161t37.5 -186q0 -159 -97.5 -251t-263.5 -92q-82 0 -144.5 28.5t-112.5 89.5q-49 -62 -112.5 -90t-152.5 -28q-158 0 -255.5 93.5t-97.5 254.5q0 115 48.5 205t145.5 174l104 -96q-70 -62 -106.5 -130t-36.5 -150q0 -103 55 -160t147 -57q73 0 114 31.5 t56.5 81t15.5 165.5v212h150v-209q0 -90 7.5 -135t32 -80t59.5 -50.5t86 -15.5q93 0 148 57t55 160q0 148 -132 270l73 69h-660zM252 436q5 -151 69 -234t174 -83q79 0 127 53t48 150t-52 152t-140 55q-116 0 -226 -93z"/>
    <glyph glyph-name="uni0D2C_uni0D4D_uni0D32" horiz-adv-x="2674" d="M2350 144v990h179v-1134h-113q113 -159 113 -338q0 -159 -91 -255.5t-251 -96.5q-172 0 -262 92.5t-90 274.5v9q0 168 -63.5 241t-202.5 73q-110 0 -189 -58.5t-105 -166.5q86 52 173 52q117 0 184 -70.5t67 -186.5q0 -120 -75 -190t-208 -70q-138 0 -218 98t-80 267 q0 193 124 325h-171v627q0 165 -40 240.5t-114 111.5t-186 36q-185 0 -313 -113.5t-159 -307.5q116 78 248 78q152 0 243 -89.5t91 -245.5q0 -166 -94.5 -263.5t-255.5 -97.5q-119 0 -212.5 60.5t-143.5 178t-50 279.5q0 201 81 352.5t230.5 233.5t337.5 82q142 0 243 -42.5 t184 -138.5q66 96 149 138.5t207 42.5q148 0 260.5 -71.5t173.5 -201.5t61 -291q0 -125 -35.5 -234t-125.5 -220h499zM1629 133q116 116 159.5 223.5t43.5 241.5q0 182 -89 299.5t-228 117.5q-80 0 -132 -27.5t-84 -79.5t-41.5 -120.5t-9.5 -190.5v-591q132 130 325 130 q29 0 56 -3zM251 436q6 -153 70.5 -235t173.5 -82q79 0 127 53t48 150t-52 152t-140 55q-116 0 -227 -93zM2223 0h-217q-46 0 -108 2q53 -51 76 -124t23 -175v-13q0 -142 48.5 -192.5t135.5 -50.5q93 0 140 54t47 157q0 189 -145 342zM1265 -351q2 -105 42.5 -161.5 t111.5 -56.5q135 0 135 140q0 62 -35.5 98t-95.5 36q-82 0 -158 -56z"/>
    <glyph glyph-name="uni0D2E_uni0D4D_uni0D2E" horiz-adv-x="2543" d="M2418 0h-2293v549q0 202 62.5 331t196 205.5t343.5 76.5q199 0 334.5 -69t208.5 -207q69 138 198 207t317 69q193 0 334 -62.5t220 -191.5t79 -363v-545zM1360 139h10q229 172 354.5 350.5t125.5 333.5q0 91 -41.5 141.5t-120.5 50.5q-140 0 -234 -123t-94 -383v-370z M302 139h10q229 172 354.5 350.5t125.5 333.5q0 91 -41.5 141.5t-120.5 50.5q-140 0 -234 -123t-94 -383v-370zM2241 509q0 248 -76 355t-208 141q38 -47 53.5 -94.5t15.5 -106.5q0 -156 -97.5 -316t-307.5 -350q89 6 176 6h444v365zM1183 509q0 248 -76 355t-208 141 q38 -47 53.5 -94.5t15.5 -106.5q0 -156 -97.5 -316t-307.5 -350q89 6 176 6h444v365z"/>
    <glyph glyph-name="uni0D2E_uni0D4D_uni0D2A" horiz-adv-x="2447" d="M931 979q68 96 152.5 139.5t206.5 43.5q148 0 260.5 -71.5t173.5 -201.5t61 -291q0 -125 -35.5 -234t-125.5 -220h499v990h179v-1134h-848l-74 111q133 127 179 239t46 248q0 182 -89 299.5t-228 117.5q-80 0 -132 -27.5t-84 -79.5t-41.5 -120.5t-9.5 -190.5v-597h-177 v597q0 116 -9 182t-38.5 119t-83 84.5t-131.5 31.5q-139 0 -230.5 -118.5t-91.5 -298.5q0 -314 245 -485l-117 -129q-162 128 -235 275.5t-73 338.5q0 166 64 295.5t180 199.5t266 70q113 0 197 -44.5t144 -138.5z"/>
    <glyph glyph-name="uni0D2E_uni0D4D_uni0D32" horiz-adv-x="1485" d="M226 -225q85 52 172 52q117 0 184 -70.5t67 -186.5q0 -120 -75 -190t-208 -70q-138 0 -218 98t-80 267q0 205 131 327q-36 -2 -74 -2v549q0 202 62.5 331t196 205.5t343.5 76.5q193 0 334 -62.5t220 -191.5t79 -363v-545h-54q112 -159 112 -338q0 -159 -87 -255.5 t-240 -96.5q-163 0 -249.5 92t-86.5 275v9q0 172 -61.5 243t-190.5 71q-105 0 -179.5 -59t-97.5 -166zM302 139h10q229 172 354.5 350.5t125.5 333.5q0 91 -41.5 141.5t-120.5 50.5q-140 0 -234 -123t-94 -383v-370zM1183 509q0 248 -76 355t-208 141q38 -47 53.5 -94.5 t15.5 -106.5q0 -156 -97.5 -316t-307.5 -350q89 6 176 6h444v365zM923 0q-39 0 -101 2q95 -91 95 -299v-13q0 -143 44.5 -193t124.5 -50q84 0 127.5 53.5t43.5 157.5q0 189 -144 342h-190zM215 -351q3 -106 43.5 -162t110.5 -56q135 0 135 140q0 62 -35.5 98t-95.5 36 q-80 0 -158 -56z"/>
    <glyph glyph-name="uni0D2F_uni0D4D_uni0D2F" horiz-adv-x="2120" d="M802 1066q59 48 127.5 72t146.5 24q198 0 314 -130t116 -353q0 -168 -70 -313.5t-199 -240.5q60 -10 116 -10q236 0 369.5 143t133.5 381q0 116 -38 226.5t-112 199.5l142 97q92 -108 139.5 -241.5t47.5 -277.5q0 -149 -44 -268.5t-132 -209.5v-718h-1040l-77 141 l393 285q70 51 167 108q-133 8 -234 49q-134 -54 -298 -54q-206 0 -362 86.5t-242 249.5t-86 374q0 216 121.5 346t322.5 130q163 0 278 -96zM1066 175q119 67 189.5 202.5t70.5 301.5q0 163 -67.5 251t-182.5 88q-119 0 -189 -90t-70 -249q0 -155 67 -293.5t182 -210.5z M699 944q-69 74 -172 74q-124 0 -196 -89.5t-72 -247.5q0 -156 63.5 -287t183 -205t278.5 -74q67 0 119 8q-133 105 -199 247t-66 322q0 142 61 252zM1680 43q-42 -19 -99 -35l-596 -424l1 -4q90 8 262 8h432v455zM466 -690zM1549 1134zM1549 990zM1889 0z"/>
    <glyph glyph-name="uni0D31_uni0D4D_uni0D31" horiz-adv-x="1381" d="M870 171q120 68 184.5 174.5t64.5 239.5q0 195 -114.5 312t-312.5 117q-196 0 -313 -120t-117 -307q0 -140 62 -245t187 -176l-101 -123q-158 85 -244 229.5t-86 325.5q0 165 77 295.5t217 199.5t324 69t320.5 -67.5t209.5 -196.5t73 -294q0 -183 -82.5 -323.5 t-247.5 -238.5zM828 -582q73 47 110.5 116t37.5 150q0 132 -76.5 212t-207.5 80q-130 0 -208.5 -81.5t-78.5 -204.5q0 -89 35.5 -154t112.5 -118l-102 -108q-210 153 -210 388q0 181 121.5 298.5t329.5 117.5t328 -114t120 -296q0 -239 -210 -394zM611 187zM653 -553zM210 0 z"/>
    <glyph glyph-name="uni0D32_uni0D4D_uni0D2A" horiz-adv-x="1759" d="M307 454v-310h1130v990h177v-1785h-852l-45 106q36 38 48.5 70.5t12.5 73.5q0 67 -44.5 108.5t-122.5 41.5t-123 -40t-45 -102q0 -95 89 -163l-93 -99q-146 109 -146 261q0 124 87 201t230 77q148 0 232.5 -74.5t84.5 -187.5q0 -77 -30 -132h538v510h-1305v641 q0 193 59 301.5t168.5 164t266.5 55.5q246 0 369 -126t123 -377v-205h-809zM307 598h632v57q0 192 -74.5 277.5t-242.5 85.5q-166 0 -240.5 -86t-74.5 -274v-60zM586 -690z"/>
    <glyph glyph-name="uni0D32_uni0D4D_uni0D32" horiz-adv-x="1759" d="M307 454v-310h1130v990h177v-1134h-106q106 -131 106 -304q0 -175 -102 -280.5t-279 -105.5q-132 0 -210.5 50t-111 129t-32.5 197v2q0 169 -64.5 240.5t-200.5 71.5q-114 0 -193.5 -60t-102.5 -166q87 53 174 53q117 0 184 -70.5t67 -186.5q0 -120 -75.5 -190 t-209.5 -70q-137 0 -216.5 98.5t-79.5 266.5q0 103 33.5 185t101.5 142q-38 -2 -109 -2h-58v641q0 193 59 301.5t168.5 164t266.5 55.5q246 0 369 -126t123 -377v-205h-809zM307 598h632v57q0 192 -74.5 277.5t-242.5 85.5q-166 0 -240.5 -86t-74.5 -274v-60zM1307 0h-247 q-46 0 -117 3q51 -48 74.5 -120.5t23.5 -179.5v-7q0 -84 15 -135.5t60 -82.5t117 -31q101 0 161 64t60 176q0 191 -147 313zM309 -351q2 -105 42.5 -161.5t111.5 -56.5q135 0 135 140q0 62 -35.5 98t-95.5 36q-82 0 -158 -56z"/>
    <glyph glyph-name="uni0D33_uni0D4D_uni0D33" horiz-adv-x="2906" d="M1709 794q97 58 201 58q143 0 224 -82.5t81 -216.5q0 -140 -91.5 -228.5t-252.5 -88.5t-255.5 106t-94.5 295q0 144 87 267.5t247 190.5t376 67q274 0 426 -89.5t152 -248.5q0 -88 -47 -152.5t-140 -104.5q105 -34 157.5 -100t52.5 -165q0 -61 -25 -122t-79.5 -103.5 t-122 -59.5t-173.5 -17h-457q-116 0 -164 -14t-70.5 -42.5t-22.5 -69.5q0 -72 53 -104t174 -34h850v-148h-2272q-219 0 -320.5 74t-101.5 198q0 79 32.5 141t115 102.5t238.5 40.5h456q101 0 153.5 13t85.5 49.5t33 108.5q0 81 -64 128t-181 47h-62v144h13q84 0 129 11.5 t78 36.5t48.5 58t15.5 76q0 95 -106.5 148.5t-303.5 53.5q-181 0 -313 -56t-200 -168q97 58 201 58q143 0 224 -82.5t81 -216.5q0 -140 -91.5 -228.5t-252.5 -88.5t-255.5 106t-94.5 295q0 144 87 267.5t247 190.5t376 67q274 0 426 -89.5t152 -248.5q0 -88 -47 -152.5 t-140 -104.5q105 -34 157.5 -100t52.5 -165q0 -61 -25 -122t-79.5 -103.5t-122 -59.5t-173.5 -17h-457q-116 0 -164 -14t-70.5 -42.5t-22.5 -69.5q0 -72 54 -105t198 -33h1051q-40 55 -40 124q0 79 32.5 141t115 102.5t238.5 40.5h456q101 0 153.5 13t85.5 49.5t33 108.5 q0 81 -64 128t-181 47h-62v144h13q84 0 129 11.5t78 36.5t48.5 58t15.5 76q0 95 -106.5 148.5t-303.5 53.5q-181 0 -313 -56t-200 -168zM1675 620q4 -244 194 -244q83 0 129.5 48.5t46.5 127.5q0 78 -43.5 121.5t-123.5 43.5q-111 0 -203 -97zM235 620q2 -122 50.5 -183 t143.5 -61q83 0 129.5 48.5t46.5 127.5q0 78 -43.5 121.5t-123.5 43.5q-111 0 -203 -97zM458 -690z"/>
    <glyph glyph-name="uni0D35_uni0D4D_uni0D32" horiz-adv-x="1963" d="M626 -225q85 52 172 52q117 0 184 -70.5t67 -186.5q0 -120 -75 -190t-208 -70q-138 0 -218 98t-80 267q0 132 55 237t156 164.5t229 59.5q105 78 158 182.5t53 235.5q0 210 -115 335t-314 125q-127 0 -225 -57.5t-150.5 -163t-52.5 -234.5q0 -148 62 -260t187 -188 l-101 -129q-157 89 -243.5 241.5t-86.5 343.5q0 174 76.5 311.5t216.5 210.5t325 73t321.5 -72t209 -207t72.5 -308q0 -121 -38 -224.5t-125 -206.5h501v991h179v-1135h-116q116 -158 116 -338q0 -159 -87 -255.5t-240 -96.5q-163 0 -249.5 92t-86.5 275v9q0 172 -61.5 243 t-190.5 71q-105 0 -179.5 -59t-97.5 -166zM1328 0q-57 0 -115 4q56 -49 80 -117.5t24 -183.5v-13q0 -143 44.5 -193t124.5 -50q84 0 127.5 53.5t43.5 157.5q0 189 -144 342h-185zM615 -351q3 -106 43.5 -162t110.5 -56q135 0 135 140q0 62 -35.5 98t-95.5 36q-80 0 -158 -56 z"/>
    <glyph glyph-name="uni0D35_uni0D4D_uni0D35" horiz-adv-x="1963" d="M1818 -553h-1040l-77 141l393 285q86 62 205 130q-34 -3 -144 -3h-198l-70 121q116 79 174 187.5t58 245.5q0 210 -115 335t-314 125q-127 0 -225 -57.5t-150.5 -163t-52.5 -234.5q0 -148 62 -260t187 -188l-101 -129q-157 89 -243.5 241.5t-86.5 343.5q0 174 76.5 311.5 t216.5 210.5t325 73t321.5 -72t209 -207t72.5 -308q0 -121 -38 -224.5t-125 -206.5h501v991h179v-1688zM1639 -412v412h-111l-584 -416l1 -4q90 8 262 8h432zM658 -690z"/>
    <glyph glyph-name="uni0D36_uni0D4D_uni0D1A" horiz-adv-x="3097" d="M1255 144h808q191 174 191 452q0 193 -104 309t-281 116q-63 0 -113 -11q100 -78 151.5 -177.5t51.5 -209.5q0 -163 -96.5 -259.5t-252.5 -96.5q-157 0 -253 96.5t-96 259.5q0 106 55 208.5t158 180.5q-40 9 -100 9q-156 0 -261 -99t-105 -383v-35q0 -152 -25.5 -242.5 t-84 -156t-138.5 -97t-191 -31.5q-227 0 -358 149.5t-131 411.5q0 197 76.5 346t240.5 278l110 -127q-247 -177 -247 -492q0 -189 83.5 -303.5t217.5 -114.5q101 0 160 40.5t83 126.5t24 281v20q0 191 61 311.5t180.5 189t291.5 68.5q144 0 258 -51q122 51 256 51 q173 0 299 -68t192.5 -197t66.5 -295q0 -135 -37.5 -246.5t-118.5 -211.5h496v990h179v-1134h-1698zM1615 955q-86 -55 -131.5 -139.5t-45.5 -185.5q0 -107 46 -163t126 -56q85 0 128.5 56t43.5 164q0 99 -43 184t-124 140zM639 990z"/>
    <glyph glyph-name="uni0D36_uni200D_uni0D4D_uni0D1B" horiz-adv-x="4132" d="M3850 732q-50 133 -176.5 207.5t-302.5 74.5q-226 0 -355 -121t-129 -334q0 -125 51 -231t177 -217l-73 -111h-1788l1 144h808q191 174 191 452q0 193 -104 309t-281 116q-63 0 -113 -11q100 -78 151.5 -177.5t51.5 -209.5q0 -163 -96.5 -259.5t-252.5 -96.5 q-157 0 -253 96.5t-96 259.5q0 106 55 208.5t158 180.5q-40 9 -100 9q-156 0 -261 -99t-105 -383v-35q0 -152 -25.5 -242.5t-84 -156t-138.5 -97t-191 -31.5q-227 0 -358 149.5t-131 411.5q0 197 76.5 346t240.5 278l110 -127q-247 -177 -247 -492q0 -189 83.5 -303.5 t217.5 -114.5q101 0 160 40.5t83 126.5t24 281v20q0 191 61 311.5t180.5 189t291.5 68.5q144 0 258 -51q122 51 256 51q173 0 299 -68t192.5 -197t66.5 -295q0 -135 -37.5 -246.5t-118.5 -211.5h595q-84 97 -125.5 205t-41.5 218q0 169 77.5 306.5t228.5 213t359 75.5 q209 0 362.5 -78.5t236.5 -231t83 -357.5q0 -252 -114.5 -385.5t-319.5 -133.5q-182 0 -290 120t-108 306q0 193 105 309t280 116q138 0 245 -95zM1615 955q-86 -55 -131.5 -139.5t-45.5 -185.5q0 -107 46 -163t126 -56q85 0 128.5 56t43.5 164q0 99 -43 184t-124 140z M3879 559q-47 60 -108.5 91.5t-130.5 31.5q-120 0 -183.5 -72.5t-63.5 -205.5q0 -140 57.5 -213t167.5 -73q134 0 199 97.5t65 292.5q0 15 -3 51zM643 1134zM639 990z"/>
    <glyph glyph-name="uni0D36_uni0D4D_uni0D36" horiz-adv-x="2130" d="M1811 22q79 -62 118.5 -153t39.5 -211q0 -167 -83 -257.5t-229 -90.5q-130 0 -208 80t-78 199q0 126 72 202.5t193 76.5q97 0 164 -60q-34 82 -115.5 131t-188.5 49q-97 0 -156.5 -30.5t-88 -91.5t-28.5 -164v-11q0 -199 -97 -290t-261 -91q-175 0 -275.5 105t-100.5 281 q0 161 88 281h-8q-227 0 -358 149.5t-131 411.5q0 197 76.5 346t240.5 278l110 -127q-247 -177 -247 -492q0 -189 83.5 -303.5t217.5 -114.5q141 0 204 82.5t63 335.5v30q0 196 58 318t186 196.5t329 74.5q198 0 345 -81t225.5 -233t78.5 -353q0 -189 -60 -307t-179 -166z M1328 99q-56 57 -83 135.5t-27 167.5q0 193 105 309t280 116q140 0 249 -99q-50 131 -170.5 208.5t-269.5 77.5q-203 0 -303.5 -107.5t-100.5 -367.5v-35q0 -204 -46.5 -302.5t-128.5 -154.5q-96 -81 -140 -169.5t-44 -190.5q0 -112 60 -176t160 -64q71 0 116.5 30.5 t60.5 82t15 130.5v1q0 127 28.5 205.5t89 129.5t149.5 73zM1876 561q-47 61 -108.5 92t-129.5 31q-120 0 -183.5 -72.5t-63.5 -205.5q0 -140 57.5 -213t167.5 -73q134 0 199 96.5t65 291.5q0 19 -4 53zM1821 -326q-59 69 -146 69q-77 0 -118 -39.5t-41 -111.5q0 -77 36 -117 t105 -40q84 0 124 57t40 176v6zM643 1134zM639 990zM1096 125zM940 0z"/>
    <glyph glyph-name="uni0D36_uni0D4D_uni0D32" horiz-adv-x="2130" d="M1862 43q69 -73 104 -159.5t35 -187.5q0 -175 -102 -280.5t-279 -105.5q-127 0 -204 46t-113.5 124.5t-36.5 202.5v7q0 160 -64 230t-199 70q-117 0 -196 -57t-102 -159q87 53 174 53q117 0 184 -70.5t67 -186.5q0 -120 -75.5 -190t-209.5 -70q-137 0 -216.5 98.5 t-79.5 266.5q0 92 30.5 170t92.5 141q-46 -9 -103 -9q-227 0 -358 149.5t-131 411.5q0 197 76.5 346t240.5 278l110 -127q-247 -177 -247 -492q0 -189 83.5 -303.5t217.5 -114.5q141 0 204 82.5t63 335.5v30q0 196 58 318t186 196.5t329 74.5q198 0 345 -81t225.5 -233 t78.5 -353q0 -163 -47 -276t-141 -176zM1712 -15q-46 -9 -96 -9q-182 0 -290 120t-108 306q0 193 105 309t280 116q140 0 249 -99q-50 131 -170.5 208.5t-269.5 77.5q-203 0 -303.5 -107.5t-100.5 -367.5v-35q0 -146 -26 -236.5t-84 -153.5q55 13 104 13q149 0 240.5 -48.5 t138.5 -135.5t47 -230v-10q0 -111 22 -160.5t66.5 -72.5t103.5 -23q101 0 161 64t60 176q0 90 -32.5 164.5t-96.5 133.5zM1876 561q-47 61 -108.5 92t-129.5 31q-120 0 -183.5 -72.5t-63.5 -205.5q0 -140 57.5 -213t167.5 -73q134 0 199 96.5t65 291.5q0 19 -4 53zM696 -351 q2 -105 42.5 -161.5t111.5 -56.5q135 0 135 140q0 62 -35.5 98t-95.5 36q-82 0 -158 -56zM643 1134zM639 990zM224 0z"/>
    <glyph glyph-name="uni0D37_uni200D_uni0D4D_uni0D1F" horiz-adv-x="2354" d="M1525 636q148 33 271.5 150t238.5 348h174v-1134h-36l-58 -83q-155 83 -346 83h-12q-99 0 -158.5 -26.5t-59.5 -78.5q0 -56 53 -77t172 -21h64q179 0 260.5 -60t81.5 -180q0 -115 -100 -181t-285 -66q-126 0 -227.5 23t-198.5 74l64 130q161 -89 359 -89q229 0 229 108 q0 57 -51 81.5t-152 24.5h-51q-212 0 -295 58.5t-83 168.5q0 66 42 111h-749l-59 107q89 83 89 216q0 113 -60.5 177t-171.5 64q-104 0 -168 -65.5t-64 -163.5q0 -150 120 -230l-93 -119q-99 68 -149.5 158t-50.5 195q0 163 112 266t293 103q120 0 212 -45.5t142 -128.5 t50 -180q0 -131 -63 -210h537v337q-223 4 -343 106t-120 266q0 128 88.5 218.5t234.5 90.5q113 0 185 -45t102 -119t30 -208v-154zM1348 622v158q0 89 -12 137t-48 74.5t-88 26.5q-64 0 -101 -42.5t-37 -119.5q0 -113 72.5 -173.5t213.5 -60.5zM2039 888 q-72 -162 -208.5 -268t-305.5 -131v-345h507v619q0 77 7 125z"/>
    <glyph glyph-name="uni0D38_uni0D4D_uni0D31_uni0D4D_uni0D31" horiz-adv-x="2505" d="M2067 -582q73 48 110.5 118.5t37.5 153.5q0 135 -77 216.5t-207 81.5q-129 0 -208 -83t-79 -209q0 -90 35.5 -157t112.5 -121l-102 -108q-105 76 -157.5 177t-52.5 217q0 118 48 207.5t143 140.5q-56 33 -96.5 90t-58 143.5t-17.5 246.5v73q0 174 -22.5 251.5t-76 118 t-140.5 40.5q-83 0 -140 -44.5t-78 -122.5t-21 -215v-515q172 -24 266.5 -135.5t94.5 -272.5q0 -244 -210 -400l-102 108q73 48 110.5 118.5t37.5 153.5q0 135 -77 216.5t-207 81.5q-129 0 -208 -83t-79 -209q0 -90 35.5 -157t112.5 -121l-102 -108q-105 76 -157.5 177 t-52.5 217q0 158 96 272t265 141v480q0 155 -20 234.5t-82.5 131.5t-159.5 52q-89 0 -162.5 -52t-116.5 -149.5t-43 -216.5q0 -315 245 -485l-117 -130q-162 128 -235 275.5t-73 339.5q0 162 63 292t179 201.5t268 71.5q111 0 194 -43t150 -144q56 93 143.5 140t206.5 47 q125 0 212 -55.5t134.5 -158.5t47.5 -328v-68q0 -160 19.5 -245.5t79.5 -134t160 -48.5q138 0 223 113.5t85 306.5q0 153 -62.5 278t-182.5 210l122 130q162 -130 232.5 -278t70.5 -340q0 -176 -61 -300.5t-177 -189.5q93 -49 142.5 -138t49.5 -206q0 -244 -210 -400z M493 144zM489 0zM1843 1134zM1839 990zM893 -553zM944 124zM1924 -24z"/>
    <glyph glyph-name="uni0D38_uni0D4D_uni0D38" horiz-adv-x="2505" d="M1678 552q0 -160 19.5 -245.5t79.5 -134t160 -48.5q138 0 223 113.5t85 306.5q0 153 -62.5 278t-182.5 210l122 130q162 -130 232.5 -278t70.5 -340q0 -312 -189 -466q169 -159 169 -390q0 -166 -103.5 -272t-271.5 -106q-124 0 -202.5 46.5t-112.5 126t-34 229.5v19 q0 101 -18.5 149t-56 72.5t-98.5 24.5q-59 0 -96 -21.5t-59.5 -65.5t-22.5 -165v-405h-155v417q0 94 -16 138.5t-61 73t-113 28.5q-103 0 -161 -62t-58 -174q0 -104 39.5 -185t125.5 -150l-114 -96q-110 90 -160.5 193.5t-50.5 226.5q0 127 62.5 223.5t175.5 138.5v505 q0 155 -20 234.5t-82.5 131.5t-159.5 52q-89 0 -162.5 -52t-116.5 -149.5t-43 -216.5q0 -315 245 -485l-117 -130q-162 128 -235 275.5t-73 339.5q0 162 63 292t179 201.5t268 71.5q112 0 194.5 -43.5t149.5 -143.5q113 187 350 187q125 0 212 -55.5t134.5 -158.5t47.5 -328 v-68zM1612 102l-6 7q-35 41 -57.5 84t-36 119.5t-13.5 219.5v73q0 174 -22.5 251.5t-76 118t-140.5 40.5q-83 0 -140 -44.5t-78 -122.5t-21 -215v-519q141 -12 232 -131q96 133 274 133q46 0 85 -14zM2100 3q-84 -27 -176 -27q-82 0 -165 31q43 -44 63.5 -112t20.5 -174v-30 q0 -80 11 -121t33 -66.5t58 -41t86 -15.5q96 0 155 67.5t59 174.5q0 191 -145 314zM1843 1134zM1839 990zM564 0zM565 144z"/>
    <glyph glyph-name="uni0D38_uni0D4D_uni0D25" horiz-adv-x="3872" d="M1678 552q0 -160 19.5 -245.5t79.5 -134t160 -48.5q138 0 223 113.5t85 306.5q0 153 -62.5 278t-182.5 210l122 130q162 -130 232.5 -278t70.5 -340q0 -249 -125 -403q72 3 160 3h272v481q0 148 31.5 241.5t97.5 159.5t159 101t210 35q172 0 288 -65t170 -176t54 -296 v-625h-1653q-80 -24 -165 -24q-106 0 -189 33t-138.5 100.5t-76.5 162.5t-21 260v73q0 174 -22.5 251.5t-76 118t-140.5 40.5q-83 0 -140 -44.5t-78 -122.5t-21 -215v-633h-177v597q0 155 -20 234.5t-82.5 131.5t-159.5 52q-89 0 -162.5 -52t-116.5 -149.5t-43 -216.5 q0 -315 245 -485l-117 -130q-162 128 -235 275.5t-73 339.5q0 162 63 292t179 201.5t268 71.5q111 0 194 -43t150 -144q56 93 143.5 140t206.5 47q125 0 212 -55.5t134.5 -158.5t47.5 -328v-68zM3565 558q0 162 -29 258t-107 147t-195 51q-115 0 -189.5 -50.5t-105 -142.5 t-30.5 -247v-430h656v414zM1843 1134zM1839 990z"/>
    <glyph glyph-name="uni0D38_uni0D4D_uni0D32" horiz-adv-x="2505" d="M1678 552q0 -160 19.5 -245.5t79.5 -134t160 -48.5q138 0 223 113.5t85 306.5q0 153 -62.5 278t-182.5 210l122 130q162 -130 232.5 -278t70.5 -340q0 -174 -62 -304t-180 -199q137 -149 137 -345q0 -175 -102 -280.5t-279 -105.5q-132 0 -210.5 50t-111 129t-32.5 197v2 q0 163 -64.5 232.5t-198.5 69.5q-117 0 -196 -57t-102 -159q87 53 174 53q117 0 184 -70.5t67 -186.5q0 -120 -75.5 -190t-209.5 -70q-137 0 -216.5 98.5t-79.5 266.5q0 197 129 325h-153v597q0 155 -20 234.5t-82.5 131.5t-159.5 52q-89 0 -162.5 -52t-116.5 -149.5 t-43 -216.5q0 -315 245 -485l-117 -130q-162 128 -235 275.5t-73 339.5q0 162 63 292t179 201.5t268 71.5q112 0 194.5 -43.5t149.5 -143.5q113 187 350 187q125 0 212 -55.5t134.5 -158.5t47.5 -328v-68zM2030 -14q-57 -10 -106 -10q-100 0 -186.5 34t-141 99.5t-76 160 t-21.5 262.5v73q0 174 -22.5 251.5t-76 118t-140.5 40.5q-83 0 -140 -44.5t-78 -122.5t-21 -215v-612q127 106 300 106q161 0 256 -63.5t132.5 -146t37.5 -214.5v-7q0 -84 15 -135.5t60 -82.5t117 -31q101 0 161 64t60 176q0 179 -130 299zM1015 -351q2 -105 42.5 -161.5 t111.5 -56.5q135 0 135 140q0 62 -35.5 98t-95.5 36q-82 0 -158 -56zM1843 1134zM1839 990zM665 144z"/>
    <glyph glyph-name="uni0D39_uni0D4D_uni0D2E" horiz-adv-x="2535" d="M2410 0h-1738l-59 107q89 83 89 216q0 113 -60.5 177t-171.5 64q-104 0 -168 -65.5t-64 -163.5q0 -150 120 -230l-93 -119q-99 68 -149.5 158t-50.5 195q0 163 112 266t293 103q120 0 212 -45.5t142 -128.5t50 -180q0 -131 -63 -210h364v405q0 202 62.5 331t196 205.5 t343.5 76.5q193 0 334 -62.5t220 -191.5t79 -363v-545zM1352 144h17q226 171 349.5 348t123.5 331q0 91 -41.5 141.5t-120.5 50.5q-140 0 -234 -123t-94 -383v-365zM2233 509q0 248 -76 355t-208 141q38 -47 53.5 -94.5t15.5 -106.5q0 -156 -97.5 -316t-307.5 -350 q89 6 176 6h444v365z"/>
    <glyph glyph-name="uni0D39_uni0D4D_uni0D28" horiz-adv-x="2921" d="M2524 -17l-110 126q125 88 186 209t61 280q0 181 -88.5 298.5t-228.5 117.5q-72 0 -122.5 -22.5t-85.5 -72t-47 -114.5t-12 -208v-597h-177v597q0 116 -9 182t-38.5 119t-83 84.5t-131.5 31.5q-139 0 -230.5 -118.5t-91.5 -298.5q0 -299 230 -486l-73 -111h-801l-59 107 q89 83 89 216q0 113 -60.5 177t-171.5 64q-104 0 -168 -65.5t-64 -163.5q0 -150 120 -230l-93 -119q-99 68 -149.5 158t-50.5 195q0 163 112 266t293 103q120 0 212 -45.5t142 -128.5t50 -180q0 -131 -63 -210h491q-88 110 -127 219t-39 234q0 164 62.5 293t179.5 200.5 t268 71.5q113 0 197 -44t145 -141q61 95 147 140t211 45q148 0 260.5 -71.5t173.5 -201.5t61 -291q0 -190 -75.5 -337.5t-241.5 -277.5z"/>
    </font>
</defs>
</svg>
